Torrent Search | Torrent Meta Search | Widgets

Traci Lords Tracy s Hidden Fantasies (1986)

       
752.2 Mb
found 4 years ago
▲ seeders: 1 ▼ leechers:0
your vote:
real:
fake:
Direct Download
THANK YOU
download torrent
  Direct Downloadsponsored

Traci Lords Tracy s Hidden Fantasies (1986) torrent

Information about the torrent Traci Lords Tracy s Hidden Fantasies (1986). Seeders, leechers and torrent status is updated several times per day.

If you want to download the video torrent Traci Lords Tracy s Hidden Fantasies (1986) you will need a torrent client.

Torrent Metasearch.

Torrent verified by kat.ph.

tracker
seeders
leechers
↓ torrent client compatible list

↑ hide torrent client compatible list

Help torrentproject.com to stay alive .
Add links of torrentproject.com in your favorite forum, blog, youtube, facebook, twitter etc.
reviews
140
torrent contents

Traci Lords- Tracy s Hidden Fantasies 1986.mpg torrent

Traci Lords- Tracys Hidden Fantasies 1986.mpg752.2 Mb torrent search

Sample info:
Duration: 01:15:24.87, start: 0.340078, bitrate: 1394 kb/s
Stream #0.0[0x1e0]: Video: mpeg1video, yuv420p, 352x240 [PAR 200:219 DAR 880:657], 1150 kb/s, 29.97 fps, 29.97 tbr, 90k tbn, 29.97 tbc
Stream #0.1[0x1c0]: Audio: mp2, 44100 Hz, 2 channels, s16, 224 kb/s
screenshots
Traci Lords Tracy s torrent screenshot 3DBDAA47CCCBBCA618ABCEF0D46A843F531B7370 Traci Lords Tracy s  torrent screenshot 3dbdaa47cccbbca618abcef0d46a843f531b7370 torrent Traci Lords Tracy s
Traci Lords- Tracy s Hidden Fantasies 1986.mpg images are auto generated please report any inapropriate images
 

related search cloud

 fantasies  hidden  tracys  lords  traci