Torrent Search | Torrent Meta Search | Widgets

Kagney Linn Karter vs Sara Sloane

       
2.73 Gb
found 2 years ago
▲ seeders: 4 ▼ leechers:1
your vote:
real:
fake:
Direct Download
THANK YOU
download torrent
  Direct Downloadsponsored

Kagney Linn Karter vs Sara Sloane torrent

Information about the torrent Kagney Linn Karter vs Sara Sloane. A torrent file stores metadata that can be used from a BitTorrent client.

If you want to download the video torrent Kagney Linn Karter vs Sara Sloane you will need a torrent client.

Torrent Metasearch.

.

tracker
seeders
leechers
↓ torrent client compatible list

↑ hide torrent client compatible list

Help torrentproject.com to stay alive .
Add links of torrentproject.com in your favorite forum, blog, youtube, facebook, twitter etc.
reviews
140
torrent contents

Kagney.Linn.Karter.vs.Sara.Sloane torrent

Kagney.Linn.Karter.vs.Sara.Sloane
cic-kvssd2a.avi700.06 Mb torrent search
cic-kvssd1a.avi699.46 Mb torrent search
cic-kvssd1b.avi697.23 Mb torrent search
cic-kvssd2b.avi694.49 Mb torrent search

Sample info:
Duration: 01:40:22.34, start: 0.000000, bitrate: 975 kb/s
Stream #0.0: Video: mpeg4 (Advanced Simple Profile), yuv420p, 624x352 [PAR 1:1 DAR 39:22], 29.97 tbr, 29.97 tbn, 29.98 tbc
Stream #0.1: Audio: mp3, 48000 Hz, mono, s16, 105 kb/s
screenshots
Kagney Linn Karter vs torrent screenshot 3E0A268962AE2CC9E3E54C87B3C5632284ED2C07 Kagney Linn Karter vs  torrent screenshot 3e0a268962ae2cc9e3e54c87b3c5632284ed2c07 torrent Kagney Linn Karter vs
Kagney.Linn.Karter.vs.Sara.Sloane images are auto generated please report any inapropriate images
 

related search cloud

 sara  karter  linn  kagney