Torrent Search | Torrent Meta Search | Widgets

Naturist Freedom Full Pool

       
1.24 Gb
found 4 years ago
▲ seeders: 1 ▼ leechers:1
your vote:
real:
fake:
Direct Download
THANK YOU
download torrent
  Direct Downloadsponsored

Naturist Freedom Full Pool torrent

Information about the torrent Naturist Freedom Full Pool. Seeders, leechers and torrent status is updated everyday.

If you want to download the video torrent Naturist Freedom Full Pool you will need a torrent client.

Torrent Metasearch.

.

tracker
seeders
leechers
↓ torrent client compatible list

↑ hide torrent client compatible list

Help torrentproject.com to stay alive .
Add links of torrentproject.com in your favorite forum, blog, youtube, facebook, twitter etc.
reviews
anonymous 12 Feb 2014, 02:02:03
Naturist Freedom
140
torrent contents

Naturist Freedom - Full Pool.avi torrent

Naturist Freedom - Full Pool.avi1.24 Gb torrent search

Sample info:
Duration: 00:55:32.23, start: 0.000000, bitrate: 3205 kb/s
Stream #0.0: Video: mpeg4 (Advanced Simple Profile), yuv420p, 576x416 [PAR 1:1 DAR 18:13], 29.97 tbr, 29.97 tbn, 29.98 tbc
Stream #0.1: Audio: mp3, 48000 Hz, stereo, s16, 128 kb/s
screenshots
Naturist Freedom Full Pool torrent screenshot 3E289DBF04B76C000BC78398E840B38CBFEAAF21 Naturist Freedom Full Pool torrent screenshot 3e289dbf04b76c000bc78398e840b38cbfeaaf21 torrent Naturist Freedom Full Pool
Naturist Freedom - Full Pool.avi images are auto generated please report any inapropriate images
 

related search cloud

 pool  full  freedom  naturist