Torrent Search | Torrent Meta Search | Widgets

La gran pelicula de Piglet 2003

       
661.18 Mb
found 3 years ago
▲ seeders: 1 ▼ leechers:1
your vote:
real:
fake:
Direct Download
THANK YOU
download torrent
  Direct Downloadsponsored

La gran pelicula de Piglet 2003 torrent

Information about the torrent La gran pelicula de Piglet 2003. Seeders, leechers and torrent status is updated everyday.

If you want to download the video torrent La gran pelicula de Piglet 2003 you will need a torrent client.

Torrent Metasearch.

.

tracker
seeders
leechers
↓ torrent client compatible list

↑ hide torrent client compatible list

Help torrentproject.com to stay alive .
Add links of torrentproject.com in your favorite forum, blog, youtube, facebook, twitter etc.
reviews
140
torrent contents

La gran pelicula de Piglet 2003 torrent

La gran pelicula de Piglet 2003
caratula.jpg84.46 Kb torrent search
La gran pelicula de Piglet 2003.divx661.1 Mb torrent search

Sample info:
Duration: 01:11:49.06, start: 0.000000, bitrate: 1286 kb/s
Stream #0.0: Video: mpeg4, yuv420p, 720x432 [PAR 1:1 DAR 5:3], 30.00 tb(r)
Stream #0.1: Audio: mp3, 48000 Hz, stereo, 128 kb/s
screenshots
La gran pelicula de torrent screenshot 3EC0E6D8CA4451C86E05FCB2E7029BBED6484142 La gran pelicula de  torrent screenshot 3ec0e6d8ca4451c86e05fcb2e7029bbed6484142 torrent La gran pelicula de
La gran pelicula de Piglet 2003 images are auto generated please report any inapropriate images
 

related search cloud

 piglet  pelicula  gran  caratula