Torrent Search | Torrent Meta Search | Widgets

sexo fuck my mom and me 19

2.74 Gb
found 2 years ago
▲ seeders: 3 ▼ leechers:5
your vote:
real:
fake:
Direct Download
THANK YOU
download torrent
  Direct Downloadsponsored

sexo fuck my mom and me 19 torrent

Information about the torrent sexo fuck my mom and me 19. Seeders, leechers and torrent status is updated several times per day.

If you want to download the adult torrent sexo fuck my mom and me 19 you will need a torrent client.

Torrent Metasearch.

tracker
seeders
leechers
↓ torrent client compatible list

↑ hide torrent client compatible list

Help torrentproject.com to stay alive .
Add links of torrentproject.com in your favorite forum, blog, youtube, facebook, twitter etc.
reviews
140
torrent contents

sexo-fuck.my.mom.and.me.19.mp4 torrent

sexo-fuck.my.mom.and.me.19.mp42.74 Gb torrent search

Sample info:
Duration: 01:35:16.14, start: 0.000000, bitrate: 4115 kb/s
Stream #0.0	: Video: h264 (Main), yuv420p, 1280x720 [PAR 1:1 DAR 16:9], 3984 kb/s, 29.97 fps, 29.97 tbr, 30k tbn, 59.94 tbc
creation_time	: 1970-01-01 00:00:00
Stream #0.1	: Audio: aac, 44100 Hz, stereo, s16, 125 kb/s
creation_time	: 1970-01-01 00:00:00
screenshots
sexo fuck my mom torrent screenshot 40762EF548732CEC1D0CE37DFE05D24C99907B12 sexo fuck my mom  torrent screenshot 40762ef548732cec1d0ce37dfe05d24c99907b12 torrent sexo fuck my mom
sexo-fuck.my.mom.and.me.19.mp4 images are auto generated please report any inapropriate images
 

related search cloud

 fuck  sexo