Torrent Search | Torrent Meta Search | Widgets

X Art Truth Or Dare Lexi Belle Mia Malkova 1080p mov

941.5 Mb
found 1 year ago
▲ seeders: 2 ▼ leechers:5
your vote:
real:
fake:
Direct Download
THANK YOU
download torrent
  Direct Downloadsponsored

X Art Truth Or Dare Lexi Belle Mia Malkova 1080p mov torrent

Information about the torrent X Art Truth Or Dare Lexi Belle Mia Malkova 1080p mov. Seeders, leechers and torrent status is updated several times per day.

If you want to download the hdrip torrent X Art Truth Or Dare Lexi Belle Mia Malkova 1080p mov you will need a torrent client.

Torrent Metasearch.

tracker
seeders
leechers
↓ torrent client compatible list

↑ hide torrent client compatible list

Help torrentproject.com to stay alive .
Add links of torrentproject.com in your favorite forum, blog, youtube, facebook, twitter etc.
reviews
140
torrent contents

X-Art - Truth Or Dare - Lexi Belle, Mia Malkova [1080p].mov torrent

X-Art - Truth Or Dare - Lexi Belle, Mia Malkova [1080p].mov941.5 Mb torrent search

Sample info:
Duration: 00:15:17.61, start: 0.000000, bitrate: 8606 kb/s
Stream #0.0(eng): Video: mpeg4 (Simple Profile), yuv420p, 1920x1080 [PAR 1:1 DAR 16:9], 8491 kb/s, 29.97 fps, 29.97 tbr, 2997 tbn, 2997 tbc
Stream #0.1(eng): Audio: aac, 48000 Hz, stereo, s16, 108 kb/s
screenshots
X Art Truth Or torrent screenshot 418612CDA063819CF12372355DCD2C2573FD0337 X Art Truth Or  torrent screenshot 418612cda063819cf12372355dcd2c2573fd0337 torrent X Art Truth Or
X-Art - Truth Or Dare - Lexi Belle, Mia Malkova [1080p].mov images are auto generated please report any inapropriate images
 

related search cloud

 malkova  belle  lexi  dare  truth