Torrent Search | Torrent Meta Search | Widgets

Sekirei Ep 01 12 + OVA Dual Audio 1280x720 BDRip

1.33 Gb
found 4 years ago
▲ seeders: 1 ▼ leechers:1
your vote:
real:
fake:
Direct Download
THANK YOU
download torrent
  Direct Downloadsponsored

Sekirei Ep 01 12 + OVA Dual Audio 1280x720 BDRip torrent

Information about the torrent Sekirei Ep 01 12 + OVA Dual Audio 1280x720 BDRip. Seeders, leechers and torrent status is updated everyday.

If you want to download the video torrent Sekirei Ep 01 12 + OVA Dual Audio 1280x720 BDRip you will need a torrent client.

Torrent Metasearch.

tracker
seeders
leechers
↓ torrent client compatible list

↑ hide torrent client compatible list

Help torrentproject.com to stay alive .
Add links of torrentproject.com in your favorite forum, blog, youtube, facebook, twitter etc.
reviews
140
torrent contents

Sekirei Ep.01-12 + OVA (Dual-Audio) [1280x720 BDRip] torrent

Sekirei Ep.01-12 + OVA (Dual-Audio) [1280x720 BDRip]
`Sekirei 2.jpg66.63 Kb torrent search
`Sekirei.jpg3.19 Mb torrent search
Info.txt6.24 Kb torrent search
Sekirei Ep.01 [1280x720.BDRip].mkv104.8 Mb torrent search
Sekirei Ep.02 [1280x720.BDRip].mkv104.81 Mb torrent search
Sekirei Ep.03 [1280x720.BDRip].mkv104.77 Mb torrent search
Sekirei Ep.04 [1280x720.BDRip].mkv104.79 Mb torrent search
Sekirei Ep.05 [1280x720.BDRip].mkv104.57 Mb torrent search
Sekirei Ep.06 [1280x720.BDRip].mkv104.8 Mb torrent search
Sekirei Ep.07 [1280x720.BDRip].mkv104.79 Mb torrent search
Sekirei Ep.08 [1280x720.BDRip].mkv104.85 Mb torrent search
Sekirei Ep.09 [1280x720.BDRip].mkv104.78 Mb torrent search
Sekirei Ep.10 [1280x720.BDRip].mkv104.74 Mb torrent search
Sekirei Ep.11 [1280x720.BDRip].mkv104.77 Mb torrent search
Sekirei Ep.12 [1280x720.BDRip].mkv104.68 Mb torrent search
Sekirei OVA [1280x720.BDRip].mkv98.38 Mb torrent search
Torrent downloaded from Demonoid.com.txt48 bytes torrent search

Sample info:
Duration: 00:23:38.24, start: 0.000000, bitrate: N/A
Imperial Capital Part 1
Imperial Capital Part 2
Stream #0.0: Video: h264 (High), yuv420p, 1280x720, PAR 1:1 DAR 16:9, 23.98 fps, 29.97 tbr, 1k tbn, 59.94 tbc (default)
Stream #0.1(eng): Audio: aac, 48000 Hz, stereo, s16 (default)
title	: AAC 2.0 (joseole99)
Stream #0.2(jpn): Audio: aac, 48000 Hz, stereo, s16
title	: AAC 2.0 (QTS Raws)
Stream #0.3(eng): Subtitle: ass (default)
title	: Signs/Songs (polished)
Stream #0.4(jpn): Subtitle: ass
title	: Dialogue (polished)
mimetype	: application/x-truetype-font
Regular.ttf
mimetype	: application/x-truetype-font
free.ttf
mimetype	: application/x-truetype-font
Park Laser112188 22900 PM.ttf
mimetype	: application/x-truetype-font
screenshots
Sekirei Ep 01 12 torrent screenshot 41EF2D937E1221587D98A6628B94A1A9E3F6B417 Sekirei Ep 01 12  torrent screenshot 41ef2d937e1221587d98a6628b94a1a9e3f6b417 torrent Sekirei Ep 01 12
Sekirei Ep.01-12 + OVA (Dual-Audio) [1280x720 BDRip] images are auto generated please report any inapropriate images
 

related search cloud

 sekirei  bdrip  downloaded  demonoid  torrent  info  dual  audio