Torrent Search | Torrent Meta Search | Widgets

Η φίλη της κόρης μου Sirina

761.74 Mb
found 2 years ago
▲ seeders: 16 ▼ leechers:0
your vote:
real:
fake:
Direct Download
THANK YOU
download torrent
  Direct Downloadsponsored

Η φίλη της κόρης μου Sirina torrent

Information about the torrent Η φίλη της κόρης μου Sirina. Seeders, leechers and torrent status is updated several times per day.

If you want to download the video torrent Η φίλη της κόρης μου Sirina you will need a torrent client.

Torrent Metasearch.

tracker
seeders
leechers
↓ torrent client compatible list

↑ hide torrent client compatible list

Help torrentproject.com to stay alive .
Add links of torrentproject.com in your favorite forum, blog, youtube, facebook, twitter etc.
reviews
140
torrent contents

Η φίλη της κόρης μου - Sirina.avi torrent

Η φίλη της κόρης μου - Sirina.avi761.74 Mb torrent search

Sample info:
Duration: 02:21:16.92, start: 0.000000, bitrate: 753 kb/s
Stream #0.0: Video: mpeg4 (Simple Profile), yuv420p, 720x576 [PAR 1:1 DAR 5:4], 25 tbr, 25 tbn, 25 tbc
Stream #0.1: Audio: mp3, 48000 Hz, stereo, s16, 128 kb/s
screenshots
Η φίλη της κόρης torrent screenshot 41F1C85E20F40739DE36D629B0D3FAAFD509D7F7 Η φίλη της κόρης  torrent screenshot 41f1c85e20f40739de36d629b0d3faafd509d7f7 torrent Η φίλη της κόρης
Η φίλη της κόρης μου - Sirina.avi images are auto generated please report any inapropriate images
 

related search cloud

 sirina