Torrent Search | Torrent Meta Search | Widgets

Slim Indian Woman Meera Hired For Sex

111.85 Mb
found 10 months ago
▲ seeders: 4 ▼ leechers:1
your vote:
real:
fake:
Direct Download
THANK YOU
download torrent
  Direct Downloadsponsored

Slim Indian Woman Meera Hired For Sex torrent

Information about the torrent Slim Indian Woman Meera Hired For Sex. Seeders, leechers and torrent status is updated everyday.

If you want to download the video torrent Slim Indian Woman Meera Hired For Sex you will need a torrent client.

Torrent Metasearch.

tracker
seeders
leechers
↓ torrent client compatible list

↑ hide torrent client compatible list

Help torrentproject.com to stay alive .
Add links of torrentproject.com in your favorite forum, blog, youtube, facebook, twitter etc.
reviews
140
torrent contents

Slim Indian Woman Meera Hired For Sex torrent

Slim Indian Woman Meera Hired For Sex
Slim Indian Woman Meera Hired For Sex.mp4111.85 Mb torrent search

Sample info:
Duration: 00:29:18.25, start: 0.033344, bitrate: 533 kb/s
Stream #0:0	: Video: h264 (Main) (avc1 / 0x31637661), yuv420p, 600x450 [SAR 1:1 DAR 4:3], 500 kb/s, 29.97 fps, 29.97 tbr, 30k tbn, 59.94 tbc
creation_time	: 2011-04-18 22:16:34
handler_name	: VideoHandler
Stream #0:1	: Audio: aac (mp4a / 0x6134706D), 32000 Hz, mono, s16, 30 kb/s
creation_time	: 2011-04-18 22:16:34
handler_name	: SoundHandler
screenshots
Slim Indian Woman Meera torrent screenshot 422FBA77FFD8C405A7FEE9F6F1B88B5FD5EA80D0 Slim Indian Woman Meera  torrent screenshot 422fba77ffd8c405a7fee9f6f1b88b5fd5ea80d0 torrent Slim Indian Woman Meera
Slim Indian Woman Meera Hired For Sex images are auto generated please report any inapropriate images
 

related search cloud

 hired  meera  woman  indian  slim