Torrent Search | Torrent Meta Search | Widgets

Riding The Rope Wenona

542.79 Mb
found 1 year ago
▲ seeders: 4 ▼ leechers:1
your vote:
real:
fake:
Direct Download
THANK YOU
download torrent
  Direct Downloadsponsored

Riding The Rope Wenona torrent

Information about the torrent Riding The Rope Wenona. Seeders, leechers and torrent status is updated several times per day.

If you want to download the video torrent Riding The Rope Wenona you will need a torrent client.

Torrent Metasearch.

tracker
seeders
leechers
↓ torrent client compatible list

↑ hide torrent client compatible list

Help torrentproject.com to stay alive .
Add links of torrentproject.com in your favorite forum, blog, youtube, facebook, twitter etc.
reviews
140
torrent contents

Riding The Rope Wenona torrent

Riding The Rope Wenona
IR - Nov 30, 2012 - Wenona.wmv542.79 Mb torrent search

Sample info:
Duration: 00:45:44.32, start: 0.000000, bitrate: 1659 kb/s
Stream #0.0: Video: wmv3 (Main), yuv420p, 1280x720, 1500 kb/s, 23.98 tbr, 1k tbn, 1k tbc
Stream #0.1: Audio: wmav2, 44100 Hz, 2 channels, s16, 128 kb/s
screenshots
Riding The Rope Wenona torrent screenshot 423059733BF540C627811D34FDD8FC4E4EE84ACB Riding The Rope Wenona torrent screenshot 423059733bf540c627811d34fdd8fc4e4ee84acb torrent Riding The Rope Wenona
Riding The Rope Wenona images are auto generated please report any inapropriate images
 

related search cloud

 wenona  rope  riding

Torrent Anonymous Download