Torrent Search | Torrent Meta Search | Widgets

El desierto viviente The living desert (1953) DVDRip Dual Esp Eng XviD By Ainhdesi

       
749.71 Mb
found 3 years ago
▲ seeders: 3 ▼ leechers:0
your vote:
real:
fake:
Direct Download
THANK YOU
download torrent
  Direct Downloadsponsored

El desierto viviente The living desert (1953) DVDRip Dual Esp Eng XviD By Ainhdesi torrent

Information about the torrent El desierto viviente The living desert (1953) DVDRip Dual Esp Eng XviD By Ainhdesi. Seeders, leechers and torrent status is updated several times per day.

If you want to download the dvdrip torrent El desierto viviente The living desert (1953) DVDRip Dual Esp Eng XviD By Ainhdesi you will need a torrent client.

Torrent Metasearch.

.

tracker
seeders
leechers
↓ torrent client compatible list

↑ hide torrent client compatible list

Help torrentproject.com to stay alive .
Add links of torrentproject.com in your favorite forum, blog, youtube, facebook, twitter etc.
reviews
140
torrent contents

El.desierto.viviente.(The.living.desert).(1953).DVDRip.Dual(Esp-Eng).Xvid.By.Ainhdesi torrent

El.desierto.viviente.(The.living.desert).(1953).DVDRip.Dual(Esp-Eng).Xvid.By.Ainhdesi
El.desierto.viviente.(The.living.desert).(1953).DVDRip.Dual(Esp-Eng).Xvid.By.Ainhdesi.avi749.71 Mb torrent search
Cantabriatorrent.66 bytes torrent search
Torrent downloaded from Demonoid.me.txt46 bytes torrent search

Sample info:
Duration: 01:09:19.95, start: 0.000000, bitrate: 1511 kb/s
Stream #0.0: Video: mpeg4, yuv420p, 512x368 [PAR 1:1 DAR 32:23], 29.97 tb(r)
Stream #0.1: Audio: mp3, 48000 Hz, stereo, 128 kb/s
Stream #0.2: Audio: mp3, 48000 Hz, mono, 96 kb/s
screenshots
El desierto viviente The torrent screenshot 427E2B6EA0CFAEED3033AB9303A3986F632CEE2D El desierto viviente The  torrent screenshot 427e2b6ea0cfaeed3033ab9303a3986f632cee2d torrent El desierto viviente The
El.desierto.viviente.(The.living.desert).(1953).DVDRip.Dual(Esp-Eng).Xvid.By.Ainhdesi images are auto generated please report any inapropriate images
 

related search cloud

 desierto  xvid  dvdrip  dual  desert  viviente  living  demonoid  downloaded  ainhdesi