Torrent Search | Torrent Meta Search | Widgets

WowGirls Love To Spread Mia Ivana Fukalot 1080p

1.29 Gb
found 1 year ago
▲ seeders: 4 ▼ leechers:3
your vote:
real:
fake:
Direct Download
THANK YOU
download torrent
  Direct Downloadsponsored

WowGirls Love To Spread Mia Ivana Fukalot 1080p torrent

Information about the torrent WowGirls Love To Spread Mia Ivana Fukalot 1080p. Seeders, leechers and torrent status is updated everyday.

If you want to download the hdrip torrent WowGirls Love To Spread Mia Ivana Fukalot 1080p you will need a torrent client.

Torrent Metasearch.

tracker
seeders
leechers
↓ torrent client compatible list

↑ hide torrent client compatible list

Help torrentproject.com to stay alive .
Add links of torrentproject.com in your favorite forum, blog, youtube, facebook, twitter etc.
reviews
140
torrent contents

WowGirls - Love To Spread - Mia, Ivana Fukalot [1080p].wmv torrent

WowGirls - Love To Spread - Mia, Ivana Fukalot [1080p].wmv1.29 Gb torrent search

Sample info:
Duration: 00:20:34.23, start: 3.000000, bitrate: 8980 kb/s
Stream #0.0(rus): Audio: wmav2, 44100 Hz, 2 channels, s16, 192 kb/s
Stream #0.1(rus): Video: wmv3, yuv420p, 1920x1080, 8745 kb/s, 29.97 tbr, 1k tbn, 1k tbc
screenshots
WowGirls Love To Spread torrent screenshot 431A156BB5C18C1D8DC507A987984291C542A8CC WowGirls Love To Spread  torrent screenshot 431a156bb5c18c1d8dc507a987984291c542a8cc torrent WowGirls Love To Spread
WowGirls - Love To Spread - Mia, Ivana Fukalot [1080p].wmv images are auto generated please report any inapropriate images
 

related search cloud

 fukalot  ivana  spread  love  wowgirls

Torrent Anonymous Download