Torrent Search | Torrent Meta Search | Widgets

BigTitsInUniform Shay Sights Laying Pipe Like A Pro mp4s

260.51 Mb
found 11 months ago
▲ seeders: 3 ▼ leechers:2
your vote:
real:
fake:
Direct Download
THANK YOU
download torrent
  Direct Downloadsponsored

BigTitsInUniform Shay Sights Laying Pipe Like A Pro mp4s torrent

Information about the torrent BigTitsInUniform Shay Sights Laying Pipe Like A Pro mp4s. Seeders, leechers and torrent status is updated everyday.

If you want to download the video torrent BigTitsInUniform Shay Sights Laying Pipe Like A Pro mp4s you will need a torrent client.

Torrent Metasearch.

tracker
seeders
leechers
↓ torrent client compatible list

↑ hide torrent client compatible list

Help torrentproject.com to stay alive .
Add links of torrentproject.com in your favorite forum, blog, youtube, facebook, twitter etc.
reviews
140
torrent contents

BigTitsInUniform - Shay Sights - Laying Pipe Like A Pro mp4s torrent

BigTitsInUniform - Shay Sights - Laying Pipe Like A Pro mp4s
Torrent Downloaded from RARBG.com.nfo33 bytes torrent search
btiu_shay_sights_480p_1000.mp4260.51 Mb torrent search

Sample info:
Duration: 00:30:37.15, start: 0.000000, bitrate: 1189 kb/s
Stream #0:0	: Video: h264 (High) (avc1 / 0x31637661), yuv420p, 854x480 [SAR 1:1 DAR 427:240], 998 kb/s, 29.97 fps, 29.97 tbr, 11988 tbn, 59.94 tbc
handler_name	: VideoHandler
Stream #0:1	: Audio: aac (mp4a / 0x6134706D), 48000 Hz, stereo, s16, 127 kb/s
handler_name	: SoundHandler
Stream #0:2	: Data: none (rtp	/ 0x20707472)
creation_time	: 2013-09-06 04:05:00
handler_name	: GPAC ISO Hint Handler
Stream #0:3	: Data: none (rtp	/ 0x20707472)
creation_time	: 2013-09-06 04:05:02
handler_name	: GPAC ISO Hint Handler
screenshots
BigTitsInUniform Shay Sights Laying torrent screenshot 43A5B44339790772FA39D2E3B745125C869FED5C BigTitsInUniform Shay Sights Laying  torrent screenshot 43a5b44339790772fa39d2e3b745125c869fed5c torrent BigTitsInUniform Shay Sights Laying
BigTitsInUniform - Shay Sights - Laying Pipe Like A Pro mp4s images are auto generated please report any inapropriate images
 

related search cloud

 shay  sights  downloaded  rarbg  btiu  torrent  pipe  laying  bigtitsinuniform  like