Torrent Search | Torrent Meta Search | Widgets

E T The Extra Terrestrial

       
700.12 Mb
found 4 years ago
▲ seeders: 22 ▼ leechers:6
your vote:
real:
fake:
Direct Download
THANK YOU
download torrent
  Direct Downloadsponsored

E T The Extra Terrestrial torrent

Information about the torrent E T The Extra Terrestrial. Seeders, leechers and torrent status is updated everyday.

If you want to download the video torrent E T The Extra Terrestrial you will need a torrent client.

Torrent Metasearch.

Torrent verified by kat.ph.

tracker
seeders
leechers
↓ torrent client compatible list

↑ hide torrent client compatible list

Help torrentproject.com to stay alive .
Add links of torrentproject.com in your favorite forum, blog, youtube, facebook, twitter etc.
reviews
140
torrent contents

E.T. The Extra-Terrestrial torrent

E.T. The Extra-Terrestrial
E.T. The Extra-Terrestrial.mp4699.97 Mb torrent search
E.T. The Extra-Terrestrial.srt153.45 Kb torrent search
MR-rip.txt942 bytes torrent search
Torrent downloaded from Demonoid.com.txt47 bytes torrent search

Sample info:
Duration: 02:00:02.94, start: 0.000000, bitrate: 815 kb/s
Stream #0.0	: Video: h264, yuv420p, 720x384, 701 kb/s, 23.98 fps, 23.98 tbr, 24k tbn, 47.95 tbc
creation_time	: 2009-03-22 04:43:11
Stream #0.1	: Audio: aac, 48000 Hz, stereo, s16, 109 kb/s
creation_time	: 2009-03-22 04:43:58
screenshots
E T The Extra torrent screenshot 442ADB538EFEE608FEDADBCCE65C66A5DC0C9937 E T The Extra  torrent screenshot 442adb538efee608fedadbcce65c66a5dc0c9937 torrent E T The Extra
E.T. The Extra-Terrestrial images are auto generated please report any inapropriate images
 

related search cloud

 extra  terrestrial  demonoid  torrent  downloaded