Torrent Search | Torrent Meta Search | Widgets

la boutique de minnie

       
923.82 Mb
found 3 years ago
▲ seeders: 2 ▼ leechers:0
your vote:
real:
fake:
Direct Download
THANK YOU
download torrent
  Direct Downloadsponsored

la boutique de minnie torrent

Information about the torrent la boutique de minnie. Seeders, leechers and torrent status is updated everyday.

If you want to download the video torrent la boutique de minnie you will need a torrent client.

Torrent Metasearch.

.

tracker
seeders
leechers
↓ torrent client compatible list

↑ hide torrent client compatible list

Help torrentproject.com to stay alive .
Add links of torrentproject.com in your favorite forum, blog, youtube, facebook, twitter etc.
reviews
140
torrent contents

la boutique de minnie torrent

la boutique de minnie
ep 1-la boutique de minnie.M.P.avi230.97 Mb torrent search
ep 3-l-abeille de minnie.M.P.avi230.95 Mb torrent search
ep 2- le pique-nique de minnie.M.P.avi230.95 Mb torrent search
ep 4-minnie pajama party.M.P.avi230.94 Mb torrent search

Sample info:
Duration: 00:24:03.97, start: 0.000000, bitrate: 1341 kb/s
Stream #0.0: Video: mpeg4, yuv420p, 720x480 [PAR 1:1 DAR 3:2], 29.97 fps, 29.97 tbr, 29.97 tbn, 30k tbc
Stream #0.1: Audio: mp3, 48000 Hz, 2 channels, s16, 128 kb/s
screenshots
la boutique de minnie torrent screenshot 446B6BA7DFC691B855A411098622A342EFB95CA6 la boutique de minnie torrent screenshot 446b6ba7dfc691b855a411098622a342efb95ca6 torrent la boutique de minnie
la boutique de minnie images are auto generated please report any inapropriate images
 

related search cloud

 minnie  boutique  party  pajama  pique  abeille  nique

Torrent Anonymous Download