Torrent Search | Torrent Meta Search | Widgets

Gangbang Girl 27 Aurora Snow and Kami Gangbang

       
485.34 Mb
found 4 years ago
▲ seeders: 3 ▼ leechers:1
your vote:
real:
fake:
Direct Download
THANK YOU
download torrent
  Direct Downloadsponsored

Gangbang Girl 27 Aurora Snow and Kami Gangbang torrent

Information about the torrent Gangbang Girl 27 Aurora Snow and Kami Gangbang. Seeders, leechers and torrent status is updated everyday.

If you want to download the video torrent Gangbang Girl 27 Aurora Snow and Kami Gangbang you will need a torrent client.

Torrent Metasearch.

.

tracker
seeders
leechers
↓ torrent client compatible list

↑ hide torrent client compatible list

Help torrentproject.com to stay alive .
Add links of torrentproject.com in your favorite forum, blog, youtube, facebook, twitter etc.
reviews
140
torrent contents

Gangbang Girl 27 - Aurora Snow and Kami Gangbang.wmv torrent

Gangbang Girl 27 - Aurora Snow and Kami Gangbang.wmv485.34 Mb torrent search

Sample info:
Duration: 00:44:04.07, start: 2.274000, bitrate: 1539 kb/s
Stream #0.0(eng): Audio: wmav2, 32000 Hz, 2 channels, s16, 32 kb/s
Stream #0.1(eng): Video: wmv3, yuv420p, 640x480, 1500 kb/s, 29.97 tbr, 1k tbn, 1k tbc
screenshots
Gangbang Girl 27 Aurora torrent screenshot 44A15CB2B5B82D32DA38994D170219A42E56EB29 Gangbang Girl 27 Aurora  torrent screenshot 44a15cb2b5b82d32da38994d170219a42e56eb29 torrent Gangbang Girl 27 Aurora
Gangbang Girl 27 - Aurora Snow and Kami Gangbang.wmv images are auto generated please report any inapropriate images
 

related search cloud

 gangbang  kami  snow  aurora  girl