Torrent Search | Torrent Meta Search | Widgets

Sole A Catinelle (2013) iTALiAN MD CAM XviD BmA

1.39 Gb
found 6 months ago
▲ seeders: 18 ▼ leechers:0
your vote:
real:
fake:
Direct Download
THANK YOU
download torrent
  Direct Downloadsponsored

Sole A Catinelle (2013) iTALiAN MD CAM XviD BmA torrent

Information about the torrent Sole A Catinelle (2013) iTALiAN MD CAM XviD BmA. Seeders, leechers and torrent status is updated several times per day.

If you want to download the video torrent Sole A Catinelle (2013) iTALiAN MD CAM XviD BmA you will need a torrent client.

Torrent Metasearch.

tracker
seeders
leechers
↓ torrent client compatible list

↑ hide torrent client compatible list

Help torrentproject.com to stay alive .
Add links of torrentproject.com in your favorite forum, blog, youtube, facebook, twitter etc.
reviews
anonymous 06 Feb 2014, 04:02:06
Sole A Catinelle (2013) iTALiAN
140
torrent contents

Sole.A.Catinelle.2013.iTALiAN.MD.CAM.XviD-BmA[BigTower.info] torrent

Sole.A.Catinelle.2013.iTALiAN.MD.CAM.XviD-BmA[BigTower.info]
Sole.A.Catinelle.2013.iTALiAN.MD.CAM.XviD-BmA.avi1.39 Gb torrent search
LEGGIMI.txt132 bytes torrent search

Sample info:
Duration: 01:22:41.84, start: 0.000000, bitrate: 2405 kb/s
Stream #0:0: Video: mpeg4 (Advanced Simple Profile) (XVID / 0x44495658), yuv420p, 720x336 [SAR 1:1 DAR 15:7], 25 tbr, 25 tbn, 25 tbc
Stream #0:1: Audio: mp3 (U[0][0][0] / 0x0055), 48000 Hz, stereo, s16, 128 kb/s
screenshots
Sole A Catinelle 2013 torrent screenshot 45306F0AC5975309B58CEDCCE446B0617EF1DDF1 Sole A Catinelle 2013  torrent screenshot 45306f0ac5975309b58cedcce446b0617ef1ddf1 torrent Sole A Catinelle 2013
Sole.A.Catinelle.2013.iTALiAN.MD.CAM.XviD-BmA[BigTower.info] images are auto generated please report any inapropriate images
 

related search cloud

 sole  italian  xvid  catinelle  leggimi  bigtower  info

Torrent Anonymous Download