Torrent Search | Torrent Meta Search | Widgets

X Art Cassie Cassie My Love 720p

370.95 Mb
found 10 months ago
▲ seeders: 0 ▼ leechers:1
your vote:
real:
fake:
Direct Download
THANK YOU
download torrent
  Direct Downloadsponsored

X Art Cassie Cassie My Love 720p torrent

Information about the torrent X Art Cassie Cassie My Love 720p. Seeders, leechers and torrent status is updated everyday.

If you want to download the hdrip torrent X Art Cassie Cassie My Love 720p you will need a torrent client.

Torrent Metasearch.

No trackers with seeders or leechers have been found, this doesn't mean that the torrent X Art Cassie Cassie My Love 720p is dead
Help torrentproject.com to stay alive .
Add links of torrentproject.com in your favorite forum, blog, youtube, facebook, twitter etc.
reviews
140
torrent contents

X-Art - Cassie (Cassie My Love) 720p torrent

X-Art - Cassie (Cassie My Love) 720p
X-Art - Cassie (Cassie My Love) 720p.mp4370.95 Mb torrent search

Sample info:
Duration: 00:10:17.89, start: 0.000000, bitrate: 5036 kb/s
Stream #0:0(eng): Video: mpeg4 (Simple Profile) (mp4v / 0x7634706D), yuv420p, 1280x720 [SAR 1:1 DAR 16:9], 4922 kb/s, 23.98 fps, 23.98 tbr, 1199 tbn, 1199 tbc
handler_name	: VideoHandler
Stream #0:1(eng): Audio: aac (mp4a / 0x6134706D), 48000 Hz, stereo, s16, 109 kb/s
handler_name	: SoundHandler
screenshots
X Art Cassie Cassie torrent screenshot 456C083FA910AAC96093404E2959AA160F841A2C X Art Cassie Cassie  torrent screenshot 456c083fa910aac96093404e2959aa160f841a2c torrent X Art Cassie Cassie
X-Art - Cassie (Cassie My Love) 720p images are auto generated please report any inapropriate images
 

related search cloud

 caie  love