Torrent Search | Torrent Meta Search | Widgets

The Tudors S03 Season 3 720p x264 MIKY

4.68 Gb
found 2 years ago
▲ seeders: 45 ▼ leechers:15
your vote:
real:
fake:
Direct Download
THANK YOU
download torrent
  Direct Downloadsponsored

The Tudors S03 Season 3 720p x264 MIKY torrent

Information about the torrent The Tudors S03 Season 3 720p x264 MIKY. Seeders, leechers and torrent status is updated several times per day.

If you want to download the tv torrent The Tudors S03 Season 3 720p x264 MIKY you will need a torrent client.

Torrent Metasearch.

tracker
seeders
leechers
↓ torrent client compatible list

↑ hide torrent client compatible list

Help torrentproject.com to stay alive .
Add links of torrentproject.com in your favorite forum, blog, youtube, facebook, twitter etc.
reviews
140
torrent contents

The.Tudors.S03.Season.3.720p.x264.MIKY torrent

The.Tudors.S03.Season.3.720p.x264.MIKY
The.Tudors.S03E01.720p.x264.MIKY.mp4618.99 Mb torrent search
The.Tudors.S03E03.720p.x264.MIKY.mp4618.84 Mb torrent search
The.Tudors.S03E02.720p.x264.MIKY.mp4618.09 Mb torrent search
The.Tudors.S03E07.720p.x264.MIKY.mp4606.48 Mb torrent search
The.Tudors.S03E05.720p.x264.MIKY.mp4593.8 Mb torrent search
The.Tudors.S03E04.720p.x264.MIKY.mp4589.84 Mb torrent search
The.Tudors.S03E08.720p.x264.MIKY.mp4573.41 Mb torrent search
The.Tudors.S03E06.720p.x264.MIKY.mp4573.02 Mb torrent search
The.Tudors.S03E01.720p.x264.MIKY.srt52.74 Kb torrent search
The.Tudors.S03E02.720p.x264.MIKY.srt50.04 Kb torrent search
The.Tudors.S03E06.720p.x264.MIKY.srt48.86 Kb torrent search
The Tudors Season 3.jpg43.27 Kb torrent search
The.Tudors.S03E03.720p.x264.MIKY.srt41.97 Kb torrent search
The.Tudors.S03E05.720p.x264.MIKY.srt41.55 Kb torrent search
The.Tudors.S03E04.720p.x264.MIKY.srt38.15 Kb torrent search
The.Tudors.S03E07.720p.x264.MIKY.srt37.76 Kb torrent search
The.Tudors.S03E08.720p.x264.MIKY.srt36.82 Kb torrent search

Sample info:
Duration: 00:51:52.89, start: 0.000000, bitrate: 1668 kb/s
Stream #0.0	: Video: h264 (High), yuv420p, 1280x720 [PAR 1:1 DAR 16:9], 1502 kb/s, 23.98 fps, 1k tbr, 90k tbn, 180k tbc
creation_time	: 2012-09-03 07:23:19
Stream #0.1(eng): Audio: aac, 48000 Hz, stereo, s16, 159 kb/s
creation_time	: 2012-09-03 07:23:19
screenshots
The Tudors S03 Season torrent screenshot 457533827A7C5CB77D45E99CFBEDDCCC8E611D45 The Tudors S03 Season  torrent screenshot 457533827a7c5cb77d45e99cfbeddccc8e611d45 torrent The Tudors S03 Season
The.Tudors.S03.Season.3.720p.x264.MIKY images are auto generated please report any inapropriate images
 

related search cloud

 tudors  miky  season