Torrent Search | Torrent Meta Search | Widgets

Trickyoldteacher – Anny And Sabrina

       
557.89 Mb
found 3 years ago
▲ seeders: 0 ▼ leechers:4
your vote:
real:
fake:
Direct Download
THANK YOU
download torrent
  Direct Downloadsponsored

Trickyoldteacher – Anny And Sabrina torrent

Information about the torrent Trickyoldteacher – Anny And Sabrina. Seeders, leechers and torrent status is updated everyday.

If you want to download the video torrent Trickyoldteacher – Anny And Sabrina you will need a torrent client.

Torrent Metasearch.

.

tracker
seeders
leechers
↓ torrent client compatible list

↑ hide torrent client compatible list

Help torrentproject.com to stay alive .
Add links of torrentproject.com in your favorite forum, blog, youtube, facebook, twitter etc.
reviews
140
torrent contents

Trickyoldteacher – Anny And Sabrina torrent

Trickyoldteacher – Anny And Sabrina
Anny Sabrina.wmv556.63 Mb torrent search
Anny Sabrina_idx.jpg1.17 Mb torrent search
1.jpg94.41 Kb torrent search
NFO.nfo35 bytes torrent search

Sample info:
Duration: 00:32:33.55, start: 3.000000, bitrate: 2390 kb/s
Stream #0.0: Audio: wmapro, 48000 Hz, stereo, flt, 384 kb/s
Stream #0.1: Video: wmv3, yuv420p, 832x468, 2000 kb/s, PAR 1:1 DAR 16:9, 25 tbr, 1k tbn, 1k tbc
screenshots
Trickyoldteacher – Anny And torrent screenshot 45E724FBD9E5065AC52AF811D99915E3592DED9C Trickyoldteacher – Anny And  torrent screenshot 45e724fbd9e5065ac52af811d99915e3592ded9c torrent Trickyoldteacher – Anny And
Trickyoldteacher – Anny And Sabrina images are auto generated please report any inapropriate images
 

related search cloud

 sabrina  anny  trickyoldteacher

Torrent Anonymous Download