Torrent Search | Torrent Meta Search | Widgets

Hard Core Gang Bang Jessie Rogers Truth Or Dare

383.02 Mb
found 11 months ago
▲ seeders: 4 ▼ leechers:2
your vote:
real:
fake:
Direct Download
THANK YOU
download torrent
  Direct Downloadsponsored

Hard Core Gang Bang Jessie Rogers Truth Or Dare torrent

Information about the torrent Hard Core Gang Bang Jessie Rogers Truth Or Dare. Seeders, leechers and torrent status is updated several times per day.

If you want to download the video torrent Hard Core Gang Bang Jessie Rogers Truth Or Dare you will need a torrent client.

Torrent Metasearch.

tracker
seeders
leechers
↓ torrent client compatible list

↑ hide torrent client compatible list

Help torrentproject.com to stay alive .
Add links of torrentproject.com in your favorite forum, blog, youtube, facebook, twitter etc.
reviews
140
torrent contents

Hard Core Gang Bang Jessie Rogers Truth Or Dare.wmv torrent

Hard Core Gang Bang Jessie Rogers Truth Or Dare.wmv383.02 Mb torrent search

Sample info:
Duration: 00:52:47.75, start: 0.000000, bitrate: 1014 kb/s
Stream #0:0: Audio: wmav2 (a[1][0][0] / 0x0161), 44100 Hz, stereo, s16, 128 kb/s
Stream #0:1: Video: wmv3 (Main) (WMV3 / 0x33564D57), yuv420p, 960x540, 856 kb/s, SAR 1:1 DAR 16:9, 29.97 tbr, 1k tbn, 1k tbc
screenshots
Hard Core Gang Bang torrent screenshot 4675B6CD56881FCE55D7F2DFDEDD1B10B8452FF4 Hard Core Gang Bang  torrent screenshot 4675b6cd56881fce55d7f2dfdedd1b10b8452ff4 torrent Hard Core Gang Bang
Hard Core Gang Bang Jessie Rogers Truth Or Dare.wmv images are auto generated please report any inapropriate images
 

related search cloud

 rogers  truth  dare  jeie  bang  core  gang  hard