Torrent Search | Torrent Meta Search | Widgets

Hot And Mean Capri Anderson Clara G Jayme Langford

       
534.13 Mb
found 2 years ago
▲ seeders: 2 ▼ leechers:2
your vote:
real:
fake:
Direct Download
THANK YOU
download torrent
  Direct Downloadsponsored

Hot And Mean Capri Anderson Clara G Jayme Langford torrent

Information about the torrent Hot And Mean Capri Anderson Clara G Jayme Langford. Seeders, leechers and torrent status is updated several times per day.

If you want to download the video torrent Hot And Mean Capri Anderson Clara G Jayme Langford you will need a torrent client.

Torrent Metasearch.

Torrent verified by kat.ph.

tracker
seeders
leechers
↓ torrent client compatible list

↑ hide torrent client compatible list

Help torrentproject.com to stay alive .
Add links of torrentproject.com in your favorite forum, blog, youtube, facebook, twitter etc.
reviews
140
torrent contents

Hot.And.Mean.-.Capri.Anderson.Clara.G.Jayme.Langford torrent

Hot.And.Mean.-.Capri.Anderson.Clara.G.Jayme.Langford
screens.jpg339.55 Kb torrent search
poster.jpg64.23 Kb torrent search
ham_capri_clara_jayme-sd169.wmv533.74 Mb torrent search
Hot.And.Mean.-.Capri.Anderson.Clara.G.Jayme.Langford.nfo293 bytes torrent search

Sample info:
Duration: 00:31:30.70, start: 5.000000, bitrate: 2368 kb/s
Stream #0.0(eng): Audio: wmav2, 44100 Hz, 2 channels, s16, 64 kb/s
Stream #0.1(eng): Video: wmv3, yuv420p, 768x432, 2300 kb/s, 29.97 tbr, 1k tbn, 1k tbc
screenshots
Hot And Mean Capri torrent screenshot 46829D1DBF9FB9EF148B646C5DEB8DF1397BD8B3 Hot And Mean Capri  torrent screenshot 46829d1dbf9fb9ef148b646c5deb8df1397bd8b3 torrent Hot And Mean Capri
Hot.And.Mean.-.Capri.Anderson.Clara.G.Jayme.Langford images are auto generated please report any inapropriate images
 

related search cloud

 jayme  clara  capri  mean  anderson  langford  screens  poster

Torrent Anonymous Download