Torrent Search | Torrent Meta Search | Widgets

Czechav CzechCasting Vlasta 720p

236.9 Mb
found 9 months ago
▲ seeders: 1 ▼ leechers:1
your vote:
real:
fake:
Direct Download
THANK YOU
download torrent
  Direct Downloadsponsored

Czechav CzechCasting Vlasta 720p torrent

Information about the torrent Czechav CzechCasting Vlasta 720p. Seeders, leechers and torrent status is updated everyday.

If you want to download the hdrip torrent Czechav CzechCasting Vlasta 720p you will need a torrent client.

Torrent Metasearch.

tracker
seeders
leechers
↓ torrent client compatible list

↑ hide torrent client compatible list

Help torrentproject.com to stay alive .
Add links of torrentproject.com in your favorite forum, blog, youtube, facebook, twitter etc.
reviews
140
torrent contents

Czechav - CzechCasting - Vlasta [720p].mp4 torrent

Czechav - CzechCasting - Vlasta [720p].mp4236.9 Mb torrent search

Sample info:
Duration: 00:24:35.52, start: 0.000000, bitrate: 1346 kb/s
Stream #0:0	: Video: h264 (High) (avc1 / 0x31637661), yuv420p, 1280x720 [SAR 1:1 DAR 16:9], 1212 kb/s, 25 fps, 25 tbr, 12800 tbn, 50 tbc
handler_name	: VideoHandler
Stream #0:1	: Audio: aac (mp4a / 0x6134706D), 48000 Hz, stereo, s16, 127 kb/s
handler_name	: SoundHandler
screenshots
Czechav CzechCasting Vlasta 720p torrent screenshot 4867284C589332A5FCDD062B5C660B5797F47C9D Czechav CzechCasting Vlasta 720p torrent screenshot 4867284c589332a5fcdd062b5c660b5797f47c9d torrent Czechav CzechCasting Vlasta 720p
Czechav - CzechCasting - Vlasta [720p].mp4 images are auto generated please report any inapropriate images
 

related search cloud

 vlasta  czechcasting  czechav