Torrent Search | Torrent Meta Search | Widgets

La Cité Des Ombres FRENCH DVDRip XviD DVDFR

710.47 Mb
found 3 years ago
▲ seeders: 0 ▼ leechers:1
your vote:
real:
fake:
Direct Download
THANK YOU
download torrent
  Direct Downloadsponsored

La Cité Des Ombres FRENCH DVDRip XviD DVDFR torrent

Information about the torrent La Cité Des Ombres FRENCH DVDRip XviD DVDFR. Seeders, leechers and torrent status is updated everyday.

If you want to download the dvdrip torrent La Cité Des Ombres FRENCH DVDRip XviD DVDFR you will need a torrent client.

Torrent Metasearch.

tracker
seeders
leechers
↓ torrent client compatible list

↑ hide torrent client compatible list

Help torrentproject.com to stay alive .
Add links of torrentproject.com in your favorite forum, blog, youtube, facebook, twitter etc.
reviews
140
torrent contents

La.Cité.Des.Ombres.FRENCH.DVDRip.XViD-DVDFR torrent

La.Cité.Des.Ombres.FRENCH.DVDRip.XViD-DVDFR
La.Cité.Des.Ombres.FRENCH.DVDRip.XViD-DVDFR.avi710.46 Mb torrent search
DVDFR.nfo13.4 Kb torrent search

Sample info:
Duration: 01:17:57.48, start: 0.000000, bitrate: 1274 kb/s
Stream #0.0: Video: mpeg4, yuv420p, 720x400 [PAR 1:1 DAR 9:5], 25.00 tb(r)
Stream #0.1: Audio: mp3, 48000 Hz, stereo, 128 kb/s
screenshots
La Cité Des Ombres torrent screenshot 4A492E213E2C91E706856D816C16880E95419D1B La Cité Des Ombres  torrent screenshot 4a492e213e2c91e706856d816c16880e95419d1b torrent La Cité Des Ombres
La.Cité.Des.Ombres.FRENCH.DVDRip.XViD-DVDFR images are auto generated please report any inapropriate images
 

related search cloud

 dvdfr  xvid  dvdrip  french  ombres

Torrent Anonymous Download