Torrent Search | Torrent Meta Search | Widgets

GGG Anna and Aymie two sweet Cumguzzler 25468

1.14 Gb
found 1 year ago
▲ seeders: 4 ▼ leechers:1
your vote:
real:
fake:
Direct Download
THANK YOU
download torrent
  Direct Downloadsponsored

GGG Anna and Aymie two sweet Cumguzzler 25468 torrent

Information about the torrent GGG Anna and Aymie two sweet Cumguzzler 25468. A torrent file stores metadata that can be used from a BitTorrent client.

If you want to download the video torrent GGG Anna and Aymie two sweet Cumguzzler 25468 you will need a torrent client.

Torrent Metasearch.

tracker
seeders
leechers
↓ torrent client compatible list

↑ hide torrent client compatible list

Help torrentproject.com to stay alive .
Add links of torrentproject.com in your favorite forum, blog, youtube, facebook, twitter etc.
reviews
140
torrent contents

GGG - Anna and Aymie, two sweet Cumguzzler - 25468.mp4 torrent

GGG - Anna and Aymie, two sweet Cumguzzler - 25468.mp41.14 Gb torrent search

Sample info:
Duration: 01:25:18.11, start: 0.000000, bitrate: 1912 kb/s
Stream #0.0(eng): Video: h264 (High), yuv420p, 852x480 [PAR 1:1 DAR 71:40], 1591 kb/s, 25 fps, 25 tbr, 25k tbn, 50 tbc
creation_time	: 2013-04-19 03:01:48
Stream #0.1(eng): Audio: aac, 48000 Hz, stereo, s16, 317 kb/s
creation_time	: 2013-04-19 03:01:49
screenshots
GGG Anna and Aymie torrent screenshot 4B01202538524C47F915ECD91C0F9A2546BFB121 GGG Anna and Aymie  torrent screenshot 4b01202538524c47f915ecd91c0f9a2546bfb121 torrent GGG Anna and Aymie
GGG - Anna and Aymie, two sweet Cumguzzler - 25468.mp4 images are auto generated please report any inapropriate images
 

related search cloud

 cumguzzler  sweet  aymie  anna