Torrent Search | Torrent Meta Search | Widgets

Nude TaiChi Naked Tai Chi

       
528.3 Mb
found 4 years ago
▲ seeders: 4 ▼ leechers:1
your vote:
real:
fake:
Direct Download
THANK YOU
download torrent
  Direct Downloadsponsored

Nude TaiChi Naked Tai Chi torrent

Information about the torrent Nude TaiChi Naked Tai Chi. Seeders, leechers and torrent status is updated several times per day.

If you want to download the video torrent Nude TaiChi Naked Tai Chi you will need a torrent client.

Torrent Metasearch.

Torrent verified by kat.ph.

tracker
seeders
leechers
↓ torrent client compatible list

↑ hide torrent client compatible list

Help torrentproject.com to stay alive .
Add links of torrentproject.com in your favorite forum, blog, youtube, facebook, twitter etc.
reviews
140
torrent contents

Nude TaiChi - Naked Tai Chi torrent

Nude TaiChi - Naked Tai Chi
Nude TaiChi - Naked Tai Chi - v1.avi299.04 Mb torrent search
Nude TaiChi - Naked Tai Chi - v2.avi228.98 Mb torrent search
Nude TaiChi - Naked Tai Chi.jpg289.36 Kb torrent search

Sample info:
Duration: 00:29:15.65, start: 0.000000, bitrate: 1428 kb/s
Stream #0.0: Video: msmpeg4, yuv420p, 720x536, 29.97 fps, 29.97 tbr, 29.97 tbn, 29.97 tbc
Stream #0.1: Audio: mp3, 44100 Hz, stereo, s16, 192 kb/s
title	: Audio Stream
screenshots
Nude TaiChi Naked Tai torrent screenshot 4F73FCC716CDF9AADF77B11EBEA07F0D3F2DA88B Nude TaiChi Naked Tai  torrent screenshot 4f73fcc716cdf9aadf77b11ebea07f0d3f2da88b torrent Nude TaiChi Naked Tai
Nude TaiChi - Naked Tai Chi images are auto generated please report any inapropriate images
 

related search cloud

 naked  taichi  nude