Torrent Search | Torrent Meta Search | Widgets

Ben Dover Extremely Wild Wenches

       
1.04 Gb
found 3 years ago
▲ seeders: 4 ▼ leechers:1
your vote:
real:
fake:
Direct Download
THANK YOU
download torrent
  Direct Downloadsponsored

Ben Dover Extremely Wild Wenches torrent

Information about the torrent Ben Dover Extremely Wild Wenches. Seeders, leechers and torrent status is updated several times per day.

If you want to download the video torrent Ben Dover Extremely Wild Wenches you will need a torrent client.

Torrent Metasearch.

.

tracker
seeders
leechers
↓ torrent client compatible list

↑ hide torrent client compatible list

Help torrentproject.com to stay alive .
Add links of torrentproject.com in your favorite forum, blog, youtube, facebook, twitter etc.
reviews
140
torrent contents

Ben Dover - Extremely Wild Wenches torrent

Ben Dover - Extremely Wild Wenches
Extremely Wild Wenches - 1.avi599.35 Mb torrent search
Extremely Wild Wenches - 2.avi467.79 Mb torrent search
Extremely Wild Wenches - Covers.jpg1.59 Mb torrent search
Screen 1.jpg385.23 Kb torrent search
Screen 2.jpg416.73 Kb torrent search

Sample info:
Duration: 01:13:24.64, start: 0.000000, bitrate: 1141 kb/s
Stream #0.0: Video: mpeg4, yuv420p, 688x500 [PAR 1:1 DAR 172:125], PAR 512000:541671 DAR 16384:12597, 25 tbr, 25 tbn, 25 tbc
Stream #0.1: Audio: mp3, 48000 Hz, 2 channels, s16, 128 kb/s
screenshots
Ben Dover Extremely Wild torrent screenshot 4FDE853D80C6B9803E2D280428CE698E31FEBCB9 Ben Dover Extremely Wild  torrent screenshot 4fde853d80c6b9803e2d280428ce698e31febcb9 torrent Ben Dover Extremely Wild
Ben Dover - Extremely Wild Wenches images are auto generated please report any inapropriate images
 

related search cloud

 wenches  wild  extremely  screen  covers  dover

Torrent Anonymous Download