Torrent Search | Torrent Meta Search | Widgets

Hidden Camera In Clinic Massage Room

       
384.09 Mb
found 2 years ago
▲ seeders: 9 ▼ leechers:3
your vote:
real:
fake:
Direct Download
THANK YOU
download torrent
  Direct Downloadsponsored

Hidden Camera In Clinic Massage Room torrent

Information about the torrent Hidden Camera In Clinic Massage Room. Seeders, leechers and torrent status is updated everyday.

If you want to download the video torrent Hidden Camera In Clinic Massage Room you will need a torrent client.

Torrent Metasearch.

Torrent verified by kat.ph.

tracker
seeders
leechers
↓ torrent client compatible list

↑ hide torrent client compatible list

Help torrentproject.com to stay alive .
Add links of torrentproject.com in your favorite forum, blog, youtube, facebook, twitter etc.
reviews
140
torrent contents

Hidden Camera In Clinic Massage Room torrent

Hidden Camera In Clinic Massage Room
Hidden Camera In Clinic Massage Room.mpg383.86 Mb torrent search
Hidden Camera In Clinic Massage Room.jpg235.69 Kb torrent search

Sample info:
Duration: 00:40:04.93, start: 0.000000, bitrate: 1338 kb/s
Stream #0.0: Video: h264, yuv420p, 640x480 [PAR 1:1 DAR 4:3], 29.97 fps, 29.97 tbr, 29.97 tbn, 59.94 tbc
Stream #0.1: Audio: mp3, 48000 Hz, 2 channels, s16, 128 kb/s
screenshots
Hidden Camera In Clinic torrent screenshot 506BCCA4C8D10DD6DDDECF678B37B38A59722A5C Hidden Camera In Clinic  torrent screenshot 506bcca4c8d10dd6dddecf678b37b38a59722a5c torrent Hidden Camera In Clinic
Hidden Camera In Clinic Massage Room images are auto generated please report any inapropriate images
 

related search cloud

 room  maage  clinic  camera  hidden