Torrent Search | Torrent Meta Search | Widgets

ExploitedCollegeGirls Lila 720p

1.61 Gb
found 8 months ago
▲ seeders: 1 ▼ leechers:1
your vote:
real:
fake:
Direct Download
THANK YOU
download torrent
  Direct Downloadsponsored

ExploitedCollegeGirls Lila 720p torrent

Information about the torrent ExploitedCollegeGirls Lila 720p. Seeders, leechers and torrent status is updated several times per day.

If you want to download the hdrip torrent ExploitedCollegeGirls Lila 720p you will need a torrent client.

Torrent Metasearch.

tracker
seeders
leechers
↓ torrent client compatible list

↑ hide torrent client compatible list

Help torrentproject.com to stay alive .
Add links of torrentproject.com in your favorite forum, blog, youtube, facebook, twitter etc.
reviews
140
torrent contents

ExploitedCollegeGirls - Lila [720p].mp4 torrent

ExploitedCollegeGirls - Lila [720p].mp41.61 Gb torrent search

Sample info:
Duration: 01:03:41.17, start: 0.000000, bitrate: 3613 kb/s
Stream #0:0(eng): Video: h264 (Main) (avc1 / 0x31637661), yuv420p, 1280x720 [SAR 1:1 DAR 16:9], 3500 kb/s, 29.97 fps, 29.97 tbr, 30k tbn, 59.94 tbc
creation_time	: 2013-11-19 04:48:02
handler_name	: Alias Data Handler
Stream #0:1(eng): Audio: aac (mp4a / 0x6134706D), 48000 Hz, stereo, s16, 109 kb/s
creation_time	: 2013-11-19 04:48:02
handler_name	: Alias Data Handler
screenshots
ExploitedCollegeGirls Lila 720p torrent screenshot 507C00DEECB07B0C55FC393C37ECCBF79DC44382 ExploitedCollegeGirls Lila 720p torrent screenshot 507c00deecb07b0c55fc393c37eccbf79dc44382 torrent ExploitedCollegeGirls Lila 720p
ExploitedCollegeGirls - Lila [720p].mp4 images are auto generated please report any inapropriate images
 

related search cloud

 lila  exploitedcollegegirls