Torrent Search | Torrent Meta Search | Widgets

Akademia Policyjna 2 Pierwsze zadanie Their First Assignment (1985) PL 720p HDTV XviD AC3 avi x77z

2.14 Gb
found 2 years ago
▲ seeders: 1 ▼ leechers:1
your vote:
real:
fake:
Direct Download
THANK YOU
download torrent
  Direct Downloadsponsored

Akademia Policyjna 2 Pierwsze zadanie Their First Assignment (1985) PL 720p HDTV XviD AC3 avi x77z torrent

Information about the torrent Akademia Policyjna 2 Pierwsze zadanie Their First Assignment (1985) PL 720p HDTV XviD AC3 avi x77z. Seeders, leechers and torrent status is updated everyday.

If you want to download the tv torrent Akademia Policyjna 2 Pierwsze zadanie Their First Assignment (1985) PL 720p HDTV XviD AC3 avi x77z you will need a torrent client.

Torrent Metasearch.

No trackers with seeders or leechers have been found, this doesn't mean that the torrent Akademia Policyjna 2 Pierwsze zadanie Their First Assignment (1985) PL 720p HDTV XviD AC3 avi x77z is dead
Help torrentproject.com to stay alive .
Add links of torrentproject.com in your favorite forum, blog, youtube, facebook, twitter etc.
reviews
140
torrent contents

[www.tnt24.info]Akademia Policyjna 2 Pierwsze zadanie Their.First.Assignment.1985.PL.720p.HDTV.XviD.AC3.avi[x77z] torrent

[www.tnt24.info]Akademia Policyjna 2 Pierwsze zadanie Their.First.Assignment.1985.PL.720p.HDTV.XviD.AC3.avi[x77z]
Akademia Policyjna 2 Pierwsze zadanie Their.First.Assignment.1985.PL.720p.HDTV.XviD.AC3[x77z].avi2.14 Gb torrent search
tnt.GIF9.72 Kb torrent search
Open.txt174 bytes torrent search
Kliknij-zapraszam do rejestracjiurl.152 bytes torrent search

Sample info:
Duration: 01:23:28.84, start: 0.000000, bitrate: 3668 kb/s
Stream #0.0: Video: mpeg4, yuv420p, 1280x720 [PAR 1:1 DAR 16:9], 25 tbr, 25 tbn, 25 tbc
Stream #0.1: Audio: ac3, 48000 Hz, stereo, s16, 448 kb/s
screenshots
Akademia Policyjna 2 Pierwsze torrent screenshot 519BF35E8BCD35C7BDA798488DD4AE6F6ED49600 Akademia Policyjna 2 Pierwsze  torrent screenshot 519bf35e8bcd35c7bda798488dd4ae6f6ed49600 torrent Akademia Policyjna 2 Pierwsze
[www.tnt24.info]Akademia Policyjna 2 Pierwsze zadanie Their.First.Assignment.1985.PL.720p.HDTV.XviD.AC3.avi[x77z] images are auto generated please report any inapropriate images
 

related search cloud

 aignment  hdtv  xvid  their  first  zadanie  policyjna  akademia  pierwsze  rejestracjiurl