Torrent Search | Torrent Meta Search | Widgets

Swingers orgies #2

       
826.44 Mb
found 2 years ago
▲ seeders: 3 ▼ leechers:1
your vote:
real:
fake:
Direct Download
THANK YOU
download torrent
  Direct Downloadsponsored

Swingers orgies #2 torrent

Information about the torrent Swingers orgies #2. Seeders, leechers and torrent status is updated several times per day.

If you want to download the video torrent Swingers orgies #2 you will need a torrent client.

Torrent Metasearch.

.

tracker
seeders
leechers
↓ torrent client compatible list

↑ hide torrent client compatible list

Help torrentproject.com to stay alive .
Add links of torrentproject.com in your favorite forum, blog, youtube, facebook, twitter etc.
reviews
140
torrent contents

Swingers orgies #2.wmv torrent

Swingers orgies #2.wmv826.44 Mb torrent search

Sample info:
Duration: 01:37:11.87, start: 0.000000, bitrate: 1188 kb/s
Stream #0.0(eng): Audio: wmav2, 48000 Hz, 2 channels, s16, 64 kb/s
Stream #0.1(eng): Video: wmv3 (Main), yuv420p, 852x480, 1177 kb/s, 29.97 tbr, 1k tbn, 1k tbc
screenshots
Swingers orgies #2 torrent screenshot 523A1A9B260FD1AA59C7D8F1CB6A9051CC3351BD Swingers orgies #2 torrent screenshot 523a1a9b260fd1aa59c7d8f1cb6a9051cc3351bd torrent Swingers orgies #2
Swingers orgies #2.wmv images are auto generated please report any inapropriate images
 

related search cloud

 orgies  swingers

Torrent Anonymous Download