Torrent Search | Torrent Meta Search | Widgets

Marc Dorcel Soubrettes Services

       
1.81 Gb
found 4 years ago
▲ seeders: 3 ▼ leechers:1
your vote:
real:
fake:
Direct Download
THANK YOU
download torrent
  Direct Downloadsponsored

Marc Dorcel Soubrettes Services torrent

Information about the torrent Marc Dorcel Soubrettes Services. Seeders, leechers and torrent status is updated everyday.

If you want to download the adult torrent Marc Dorcel Soubrettes Services you will need a torrent client.

Torrent Metasearch.

Torrent verified by kat.ph.

tracker
seeders
leechers
↓ torrent client compatible list

↑ hide torrent client compatible list

Help torrentproject.com to stay alive .
Add links of torrentproject.com in your favorite forum, blog, youtube, facebook, twitter etc.
reviews
140
torrent contents

Marc Dorcel Soubrettes Services torrent

Marc Dorcel Soubrettes Services
 covers
Marc Dorcel Soubrettes Services F.jpg196.66 Kb torrent search
Marc Dorcel Soubrettes Services R.jpg350.76 Kb torrent search
Marc Dorcel Soubrettes Services.jpg2.99 Mb torrent search

Marc Dorcel Soubrettes Services
Making Of Soubrettes Services.avi474.75 Mb torrent search
Scene 1 Cindy Dollar, Lena Cova.avi268.93 Mb torrent search
Scene 2 Klarisa.avi203.82 Mb torrent search
Scene 3 Michelle, Sandra Sanchez.avi201.97 Mb torrent search
Scene 4 Defrancesca Gallardo, Cindy Dollar.avi217.95 Mb torrent search
Scene 5 Simone Style.avi327.59 Mb torrent search
Scene 6 Klarisa.avi143.58 Mb torrent search
Scene 7 End Credits.avi8.56 Mb torrent search

Sample info:
Duration: 00:30:59.99, start: 0.000000, bitrate: 2141 kb/s
Stream #0.0: Video: mpeg4, yuv420p, 720x416 [PAR 1:1 DAR 45:26], 29.97 fps, 29.97 tbr, 29.97 tbn, 30k tbc
Stream #0.1: Audio: mp3, 48000 Hz, 2 channels, s16, 128 kb/s
screenshots
Marc Dorcel Soubrettes Services torrent screenshot 52ECC3926144902830FCD66BA3C17BC29EA665B6 Marc Dorcel Soubrettes Services torrent screenshot 52ecc3926144902830fcd66ba3c17bc29ea665b6 torrent Marc Dorcel Soubrettes Services
Marc Dorcel Soubrettes Services images are auto generated please report any inapropriate images
 

related search cloud

 scene  soubrettes  services  marc  dorcel  dollar  klarisa  cindy  gallardo  defrancesca