Torrent Search | Torrent Meta Search | Widgets

Brus Vsemogushiy (2003) RUS BDRip XviD AC3 HQ ViDEO

       
1.46 Gb
found 4 years ago
▲ seeders: 21 ▼ leechers:1
your vote:
real:
fake:
Direct Download
THANK YOU
download torrent
  Direct Downloadsponsored

Brus Vsemogushiy (2003) RUS BDRip XviD AC3 HQ ViDEO torrent

Information about the torrent Brus Vsemogushiy (2003) RUS BDRip XviD AC3 HQ ViDEO. Seeders, leechers and torrent status is updated everyday.

If you want to download the video torrent Brus Vsemogushiy (2003) RUS BDRip XviD AC3 HQ ViDEO you will need a torrent client.

Torrent Metasearch.

.

tracker
seeders
leechers
↓ torrent client compatible list

↑ hide torrent client compatible list

Help torrentproject.com to stay alive .
Add links of torrentproject.com in your favorite forum, blog, youtube, facebook, twitter etc.
reviews
140
torrent contents

Brus.Vsemogushiy.2003.RUS.BDRip.XviD.AC3.-HQ-ViDEO.avi torrent

Brus.Vsemogushiy.2003.RUS.BDRip.XviD.AC3.-HQ-ViDEO.avi1.46 Gb torrent search

Sample info:
Duration: 01:41:02.17, start: 0.000000, bitrate: 2063 kb/s
Stream #0.0: Video: mpeg4, yuv420p, 720x384 [PAR 1:1 DAR 15:8], 23.98 tb(r)
Stream #0.1: Audio: ac3, 48000 Hz, 5:1, 384 kb/s
screenshots
Brus Vsemogushiy 2003 RUS torrent screenshot 5567439190BA713D342FCF1273DAEDB7CA4574AE Brus Vsemogushiy 2003 RUS  torrent screenshot 5567439190ba713d342fcf1273daedb7ca4574ae torrent Brus Vsemogushiy 2003 RUS
Brus.Vsemogushiy.2003.RUS.BDRip.XviD.AC3.-HQ-ViDEO.avi images are auto generated please report any inapropriate images
 

related search cloud

 video  xvid  bdrip  vsemogushiy  brus