Torrent Search | Torrent Meta Search | Widgets

Marc Dorcel La Veuve

       
1.64 Gb
found 3 years ago
▲ seeders: 1 ▼ leechers:1
your vote:
real:
fake:
Direct Download
THANK YOU
download torrent
  Direct Downloadsponsored

Marc Dorcel La Veuve torrent

Information about the torrent Marc Dorcel La Veuve. Seeders, leechers and torrent status is updated several times per day.

If you want to download the adult torrent Marc Dorcel La Veuve you will need a torrent client.

Torrent Metasearch.

Torrent verified by torlock.com.

tracker
seeders
leechers
↓ torrent client compatible list

↑ hide torrent client compatible list

Help torrentproject.com to stay alive .
Add links of torrentproject.com in your favorite forum, blog, youtube, facebook, twitter etc.
reviews
140
torrent contents

Marc Dorcel La Veuve torrent

Marc Dorcel La Veuve
 covers
La Vedova.jpg467.95 Kb torrent search
Marc Dorcel La Veuve R.jpg304.62 Kb torrent search
Marc Dorcel La Veuve F.jpg185.24 Kb torrent search
The Widow R.jpg76.46 Kb torrent search
The Widow F.jpg56 Kb torrent search

Marc Dorcel La Veuve
Making Of La Veuve.avi407.83 Mb torrent search
Scene 5 Jessica Ross, Laura Lion, Tera Bond.avi273.39 Mb torrent search
Scene 2 Claudia Rossi, Nomi.avi231.36 Mb torrent search
Scene 4 Jennifer Stone.avi173.48 Mb torrent search
Scene 3 Monica Sweetheart.avi166.48 Mb torrent search
Scene 6 Monica Sweetheart, Oksana.avi151.88 Mb torrent search
Scene 7 Oksana.avi122.08 Mb torrent search
Scene 1 Oksana.avi92.16 Mb torrent search
Scene 0 Intro.avi45.13 Mb torrent search
Scene 8 End Credits.avi14.08 Mb torrent search

Sample info:
Duration: 00:29:22.53, start: 0.000000, bitrate: 1941 kb/s
Stream #0.0: Video: mpeg4, yuv420p, 720x400 [PAR 1:1 DAR 9:5], 29.97 fps, 29.97 tbr, 29.97 tbn, 2997 tbc
Stream #0.1: Audio: mp3, 48000 Hz, 2 channels, s16, 128 kb/s
screenshots
Marc Dorcel La Veuve torrent screenshot 55B72F00E62DBA892435F6E30816C97A2ACE057F Marc Dorcel La Veuve torrent screenshot 55b72f00e62dba892435f6e30816c97a2ace057f torrent Marc Dorcel La Veuve
Marc Dorcel La Veuve images are auto generated please report any inapropriate images
 

related search cloud

 scene  veuve  marc  dorcel  oksana  monica  widow  sweetheart  jennifer  stone

Torrent Anonymous Download