Torrent Search | Torrent Meta Search | Widgets

Anales Casting 16

       
1.09 Gb
found 2 years ago
▲ seeders: 1 ▼ leechers:1
your vote:
real:
fake:
Direct Download
THANK YOU
download torrent
  Direct Downloadsponsored

Anales Casting 16 torrent

Information about the torrent Anales Casting 16. Seeders, leechers and torrent status is updated several times per day.

If you want to download the video torrent Anales Casting 16 you will need a torrent client.

Torrent Metasearch.

Torrent verified by kat.ph.

tracker
seeders
leechers
↓ torrent client compatible list

↑ hide torrent client compatible list

Help torrentproject.com to stay alive .
Add links of torrentproject.com in your favorite forum, blog, youtube, facebook, twitter etc.
reviews
140
torrent contents

Anales Casting 16 torrent

Anales Casting 16
Anales Casting 16.avi1.09 Gb torrent search

Sample info:
Duration: 01:16:10.74, start: 0.000000, bitrate: 2057 kb/s
Stream #0.0: Video: mpeg4, yuv420p, 512x384 [PAR 1:1 DAR 4:3], 25 tbr, 25 tbn, 25 tbc
Stream #0.1: Audio: mp3, 44100 Hz, 2 channels, s16, 121 kb/s
screenshots
Anales Casting 16 torrent screenshot 567D6B8E635A920B97A7379C8A2FD7D98D7DBE7E Anales Casting 16 torrent screenshot 567d6b8e635a920b97a7379c8a2fd7d98d7dbe7e torrent Anales Casting 16
Anales Casting 16 images are auto generated please report any inapropriate images
 

related search cloud

 casting  anales

Torrent Anonymous Download