Torrent Search | Torrent Meta Search | Widgets

Katsumi Body Heat

       
135.23 Mb
found 3 years ago
▲ seeders: 0 ▼ leechers:3
your vote:
real:
fake:
Direct Download
THANK YOU
download torrent
  Direct Downloadsponsored

Katsumi Body Heat torrent

Information about the torrent Katsumi Body Heat. Seeders, leechers and torrent status is updated several times per day.

If you want to download the video torrent Katsumi Body Heat you will need a torrent client.

Torrent Metasearch.

Torrent verified by kat.ph.

tracker
seeders
leechers
↓ torrent client compatible list

↑ hide torrent client compatible list

Help torrentproject.com to stay alive .
Add links of torrentproject.com in your favorite forum, blog, youtube, facebook, twitter etc.
reviews
140
torrent contents

Katsumi - Body Heat torrent

Katsumi - Body Heat
0.nfo25 bytes torrent search
image.php.jpg58.13 Kb torrent search
Katsumi - Body Heat.avi135.15 Mb torrent search
p_2291.jpg14.62 Kb torrent search

Sample info:
Duration: 00:17:13.86, start: 0.000000, bitrate: 1096 kb/s
Stream #0.0: Video: mpeg4, yuv420p, 576x320 [PAR 1:1 DAR 9:5], 23.98 tbr, 23.98 tbn, 23.98 tbc
Stream #0.1: Audio: mp3, 48000 Hz, 2 channels, s16, 123 kb/s
screenshots
Katsumi Body Heat torrent screenshot 57B644E5010C60CF38A52F47A845C39285ADE1D5 Katsumi Body Heat torrent screenshot 57b644e5010c60cf38a52f47a845c39285ade1d5 torrent Katsumi Body Heat
Katsumi - Body Heat images are auto generated please report any inapropriate images
 

related search cloud

 heat  body  katsumi  image