Torrent Search | Torrent Meta Search | Widgets

Dingding lang ang pagitan UNCUT mangkanor

1.07 Gb
found 1 year ago
▲ seeders: 7 ▼ leechers:3
your vote:
real:
fake:
Direct Download
THANK YOU
download torrent
  Direct Downloadsponsored

Dingding lang ang pagitan UNCUT mangkanor torrent

Information about the torrent Dingding lang ang pagitan UNCUT mangkanor. Seeders, leechers and torrent status is updated everyday.

If you want to download the video torrent Dingding lang ang pagitan UNCUT mangkanor you will need a torrent client.

Torrent Metasearch.

tracker
seeders
leechers
↓ torrent client compatible list

↑ hide torrent client compatible list

Help torrentproject.com to stay alive .
Add links of torrentproject.com in your favorite forum, blog, youtube, facebook, twitter etc.
reviews
140
torrent contents

Dingding lang ang pagitan(UNCUT)_mangkanor torrent

Dingding lang ang pagitan(UNCUT)_mangkanor
dingding lang ang pagitan(Uncut)_mangKanor.avi1.07 Gb torrent search
TOPSIDER (PINOY)movie sharing join us on Facebook.avi1.7 Mb torrent search

Sample info:
Duration: 02:07:40.06, start: 0.000000, bitrate: 1199 kb/s
Stream #0.0: Video: mpeg4 (Simple Profile), yuv420p, 352x240 [PAR 11:10 DAR 121:75], 29.97 fps, 29.97 tbr, 29.97 tbn, 2997 tbc
Stream #0.1: Audio: mp3, 44100 Hz, stereo, s16, 128 kb/s
screenshots
Dingding lang ang pagitan torrent screenshot 58C0D6AE5B5008EB648325560CB8D8B015105311 Dingding lang ang pagitan  torrent screenshot 58c0d6ae5b5008eb648325560cb8d8b015105311 torrent Dingding lang ang pagitan
Dingding lang ang pagitan(UNCUT)_mangkanor images are auto generated please report any inapropriate images
 

related search cloud

 dingding  mangkanor  uncut  pagitan  lang  join  facebook  sharing  topsider  pinoy

Torrent Anonymous Download