Torrent Search | Torrent Meta Search | Widgets

STAR 409

1.51 Gb
found 1 year ago
▲ seeders: 23 ▼ leechers:3
your vote:
real:
fake:
Direct Download
THANK YOU
download torrent
  Direct Downloadsponsored

STAR 409 torrent

Information about the torrent STAR 409. Seeders, leechers and torrent status is updated several times per day.

If you want to download the video torrent STAR 409 you will need a torrent client.

Torrent Metasearch.

tracker
seeders
leechers
↓ torrent client compatible list

↑ hide torrent client compatible list

Help torrentproject.com to stay alive .
Add links of torrentproject.com in your favorite forum, blog, youtube, facebook, twitter etc.
reviews
140
torrent contents

STAR-409 torrent

STAR-409
STAR-409.jpg292.03 Kb torrent search
STAR-409.mp41.51 Gb torrent search

Sample info:
Duration: 02:56:23.43, start: 0.000000, bitrate: 1227 kb/s
Stream #0.0(eng): Audio: aac, 48000 Hz, stereo, s16, 45 kb/s
creation_time	: 2013-02-07 13:09:09
Stream #0.1(eng): Video: h264 (Main), yuv420p, 640x360 [PAR 1:1 DAR 16:9], 1176 kb/s, 29.97 fps, 29.97 tbr, 30k tbn, 59.94 tbc
creation_time	: 2013-02-07 13:09:09
screenshots
STAR 409 torrent screenshot 597EA6A7D34E330B9FA4A778372E6ED8A7971018 STAR 409 torrent screenshot 597ea6a7d34e330b9fa4a778372e6ed8a7971018 torrent STAR 409
STAR-409 images are auto generated please report any inapropriate images
 

related search cloud

 star