Torrent Search | Torrent Meta Search | Widgets

Taboo The Original Classic DVDRip (1980)

       
899.45 Mb
found 3 years ago
▲ seeders: 10 ▼ leechers:3
your vote:
real:
fake:
Direct Download
THANK YOU
download torrent
  Direct Downloadsponsored

Taboo The Original Classic DVDRip (1980) torrent

Information about the torrent Taboo The Original Classic DVDRip (1980). Seeders, leechers and torrent status is updated everyday.

If you want to download the dvdrip torrent Taboo The Original Classic DVDRip (1980) you will need a torrent client.

Torrent Metasearch.

Torrent verified by kat.ph.

tracker
seeders
leechers
↓ torrent client compatible list

↑ hide torrent client compatible list

Help torrentproject.com to stay alive .
Add links of torrentproject.com in your favorite forum, blog, youtube, facebook, twitter etc.
reviews
140
torrent contents

Taboo - The Original Classic DVDRip (1980).avi torrent

Taboo - The Original Classic DVDRip (1980).avi899.45 Mb torrent search

Sample info:
Duration: 01:26:10.04, start: 0.000000, bitrate: 1459 kb/s
Stream #0.0: Video: mpeg4 (Advanced Simple Profile), yuv420p, 640x480 [PAR 1:1 DAR 4:3], 23.98 tbr, 23.98 tbn, 23.98 tbc
Stream #0.1: Audio: mp3, 48000 Hz, stereo, s16, 128 kb/s
screenshots
Taboo The Original Classic torrent screenshot 5AAE26DE48EE1C68C1AAC146AEEA8BACB5A64D3D Taboo The Original Classic  torrent screenshot 5aae26de48ee1c68c1aac146aeea8bacb5a64d3d torrent Taboo The Original Classic
Taboo - The Original Classic DVDRip (1980).avi images are auto generated please report any inapropriate images
 

related search cloud

 dvdrip  claic  original  taboo

Torrent Anonymous Download