Torrent Search | Torrent Meta Search | Widgets

College Rules Sorority Girls Get Down

       
602.18 Mb
found 2 years ago
▲ seeders: 3 ▼ leechers:1
your vote:
real:
fake:
Direct Download
THANK YOU
download torrent
  Direct Downloadsponsored

College Rules Sorority Girls Get Down torrent

Information about the torrent College Rules Sorority Girls Get Down. Seeders, leechers and torrent status is updated several times per day.

If you want to download the video torrent College Rules Sorority Girls Get Down you will need a torrent client.

Torrent Metasearch.

Torrent verified by kat.ph.

tracker
seeders
leechers
↓ torrent client compatible list

↑ hide torrent client compatible list

Help torrentproject.com to stay alive .
Add links of torrentproject.com in your favorite forum, blog, youtube, facebook, twitter etc.
reviews
140
torrent contents

College Rules Sorority Girls Get Down.mp4 torrent

College Rules Sorority Girls Get Down.mp4602.18 Mb torrent search

Sample info:
Duration: 00:22:56.40, start: 0.000000, bitrate: 3670 kb/s
Stream #0.0(eng): Video: h264, yuv420p, 1280x720, 3595 kb/s, 29.97 fps, 29.97 tbr, 2997 tbn, 50 tbc
creation_time	: 1970-01-01 00:00:00
Stream #0.1(eng): Audio: aac, 44100 Hz, stereo, s16, 67 kb/s
creation_time	: 1970-01-01 00:00:00
screenshots
College Rules Sorority Girls torrent screenshot 5BBCE04983AAFFCE06A2871184D4E57E93B55932 College Rules Sorority Girls  torrent screenshot 5bbce04983aaffce06a2871184d4e57e93b55932 torrent College Rules Sorority Girls
College Rules Sorority Girls Get Down.mp4 images are auto generated please report any inapropriate images
 

related search cloud

 down  girls  sorority  rules  college

Torrent Anonymous Download