Torrent Search | Torrent Meta Search | Widgets

Zooskool Dog A Doberman Knot & Anal

169.95 Mb
found 4 years ago
▲ seeders: 12 ▼ leechers:1
your vote:
real:
fake:
Direct Download
THANK YOU
download torrent
  Direct Downloadsponsored

Zooskool Dog A Doberman Knot & Anal torrent

Information about the torrent Zooskool Dog A Doberman Knot & Anal. Seeders, leechers and torrent status is updated everyday.

If you want to download the anal torrent Zooskool Dog A Doberman Knot & Anal you will need a torrent client.

Torrent Metasearch.

tracker
seeders
leechers
↓ torrent client compatible list

↑ hide torrent client compatible list

Help torrentproject.com to stay alive .
Add links of torrentproject.com in your favorite forum, blog, youtube, facebook, twitter etc.
reviews
anonymous 11 Mar 2014, 10:03:56
Write your torrent review here大全之二Zooskool视频合集018.25 Gb1 year agon!-[欧美][人与兽][Zooskool]Alexandras.first.second.time.(dog).45
140
torrent contents

Zooskool - Dog A Doberman Knot & Anal.mpg torrent

Zooskool - Dog A Doberman Knot & Anal.mpg169.95 Mb torrent search

Sample info:
Duration: 00:17:02.18, start: 0.340078, bitrate: 1394 kb/s
Stream #0.0[0x1e0]: Video: mpeg1video, yuv420p, 352x240 [PAR 200:219 DAR 880:657], 1150 kb/s, 29.97 tb(r)
Stream #0.1[0x1c0]: Audio: mp2, 44100 Hz, stereo, 224 kb/s
screenshots
Zooskool Dog A Doberman torrent screenshot 5C14872948859A7C1C38CD99F7C9FCCF63EF4E63 Zooskool Dog A Doberman  torrent screenshot 5c14872948859a7c1c38cd99f7c9fccf63ef4e63 torrent Zooskool Dog A Doberman
Zooskool - Dog A Doberman Knot & Anal.mpg images are auto generated please report any inapropriate images
 

related search cloud

 anal  knot  doberman  zooskool