Torrent Search | Torrent Meta Search | Widgets

Christmas Cartoon Pack ajvaughan3

       
7.29 Gb
found 2 years ago
▲ seeders: 1 ▼ leechers:0
your vote:
real:
fake:
Direct Download
THANK YOU
download torrent
  Direct Downloadsponsored

Christmas Cartoon Pack ajvaughan3 torrent

Information about the torrent Christmas Cartoon Pack ajvaughan3. Seeders, leechers and torrent status is updated everyday.

If you want to download the video torrent Christmas Cartoon Pack ajvaughan3 you will need a torrent client.

Torrent Metasearch.

.

tracker
seeders
leechers
↓ torrent client compatible list

↑ hide torrent client compatible list

Help torrentproject.com to stay alive .
Add links of torrentproject.com in your favorite forum, blog, youtube, facebook, twitter etc.
reviews
140
torrent contents

Christmas Cartoon Pack_ajvaughan3 torrent

Christmas Cartoon Pack_ajvaughan3
Yogi's First Christmas 1980.avi900.24 Mb torrent search
Rudolph The Red Nosed Reindeer 1964.avi696.55 Mb torrent search
Kung Fu Panda Holiday Special 2010.avi510.65 Mb torrent search
A Flintstone Christmas 1977.avi499.88 Mb torrent search
He-Man and She-Ra, A Christmas Special 1985.avi497.57 Mb torrent search
A Charlie Brown Christmas 1965.avi358.57 Mb torrent search
The Smurfs, A Christmas Carol 2011.avi351.64 Mb torrent search
A Garfield Christmas 1987.avi349.69 Mb torrent search
Disney Prep and Landing 2009.mp4333.51 Mb torrent search
Mickey's Christmas Carol 1983.avi300.23 Mb torrent search
How the Grinch Stole Christmas 1966.avi296.91 Mb torrent search
Frosty the Snowman 1969.avi251.29 Mb torrent search
It's Christmastime Again, Charlie Brown 1992.avi249.96 Mb torrent search
Yogi Bear's All-Star Comedy Christmas Caper 1982.avi245.47 Mb torrent search
The Smurfs Christmas Special 1982.avi225.17 Mb torrent search
The Cabbage Patch Kids First Christmas 1984.avi225.1 Mb torrent search
Christmas Comes to Pac-Land 1982.avi225.01 Mb torrent search
Frosty Returns 1992.avi218.76 Mb torrent search
Ice Age, A Mammoth Christmas 2011.avi204.3 Mb torrent search
Inspector Gadget Saves Christmas 1991.avi190.45 Mb torrent search
Merry Madagascar 2009.avi175.09 Mb torrent search
Mr. Hankey, The Christmas Poo 1997.avi159.67 Mb torrent search
Torrent downloaded from Demonoid.me.txt46 bytes torrent search

Sample info:
Duration: 01:39:00.26, start: 0.000000, bitrate: 1271 kb/s
Stream #0.0: Video: mpeg4, yuv420p, 640x480 [PAR 1:1 DAR 4:3], 23.98 fps, 23.98 tbr, 23.98 tbn, 30k tbc
Stream #0.1: Audio: mp3, 48000 Hz, 2 channels, s16, 128 kb/s
screenshots
Christmas Cartoon Pack ajvaughan3 torrent screenshot 5C60258EC687CA3C8CA350CB311DA398BEC549D4 Christmas Cartoon Pack ajvaughan3 torrent screenshot 5c60258ec687ca3c8ca350cb311da398bec549d4 torrent Christmas Cartoon Pack ajvaughan3
Christmas Cartoon Pack_ajvaughan3 images are auto generated please report any inapropriate images
 

related search cloud

 christmas  special  charlie  carol  first  smurfs  brown  frosty  yogi  returns

Torrent Anonymous Download