Torrent Search | Torrent Meta Search | Widgets

Mofos Real Amateur Girls

535.04 Mb
found 8 months ago
▲ seeders: 6 ▼ leechers:3
your vote:
real:
fake:
Direct Download
THANK YOU
download torrent
  Direct Downloadsponsored

Mofos Real Amateur Girls torrent

Information about the torrent Mofos Real Amateur Girls. A torrent file stores metadata that can be used from a BitTorrent client.

If you want to download the video torrent Mofos Real Amateur Girls you will need a torrent client.

Torrent Metasearch.

tracker
seeders
leechers
↓ torrent client compatible list

↑ hide torrent client compatible list

Help torrentproject.com to stay alive .
Add links of torrentproject.com in your favorite forum, blog, youtube, facebook, twitter etc.
reviews
140
torrent contents

Mofos - Real Amateur Girls.MP4 torrent

Mofos - Real Amateur Girls.MP4535.04 Mb torrent search

Sample info:
Duration: 00:33:26.13, start: 0.000000, bitrate: 2237 kb/s
Stream #0:0	: Video: h264 (High) (avc1 / 0x31637661), yuv420p, 854x480 [SAR 1:1 DAR 427:240], 2004 kb/s, 29.97 fps, 29.97 tbr, 11988 tbn, 59.94 tbc
handler_name	: VideoHandler
Stream #0:1	: Audio: aac (mp4a / 0x6134706D), 48000 Hz, stereo, s16, 127 kb/s
handler_name	: SoundHandler
Stream #0:2	: Data: none (rtp	/ 0x20707472)
creation_time	: 2013-11-08 03:46:28
handler_name	: GPAC ISO Hint Handler
Stream #0:3	: Data: none (rtp	/ 0x20707472)
creation_time	: 2013-11-08 03:46:55
handler_name	: GPAC ISO Hint Handler
screenshots
Mofos Real Amateur Girls torrent screenshot 5D040E0210771F1497E7A8DA0A117D50BC17AAA8 Mofos Real Amateur Girls torrent screenshot 5d040e0210771f1497e7a8da0a117d50bc17aaa8 torrent Mofos Real Amateur Girls
Mofos - Real Amateur Girls.MP4 images are auto generated please report any inapropriate images
 

related search cloud

 girls  amateur  real  mofos