Torrent Search | Torrent Meta Search | Widgets

Island Fever 4 Teagan Presley

       
375.06 Mb
found 2 years ago
▲ seeders: 2 ▼ leechers:0
your vote:
real:
fake:
Direct Download
THANK YOU
download torrent
  Direct Downloadsponsored

Island Fever 4 Teagan Presley torrent

Information about the torrent Island Fever 4 Teagan Presley. Seeders, leechers and torrent status is updated everyday.

If you want to download the video torrent Island Fever 4 Teagan Presley you will need a torrent client.

Torrent Metasearch.

Torrent verified by kat.ph.

tracker
seeders
leechers
↓ torrent client compatible list

↑ hide torrent client compatible list

Help torrentproject.com to stay alive .
Add links of torrentproject.com in your favorite forum, blog, youtube, facebook, twitter etc.
reviews
140
torrent contents

Island Fever 4 - Teagan Presley torrent

Island Fever 4 - Teagan Presley
Teagan Presley from Island Fever 4.mkv375.06 Mb torrent search
Torrent downloaded from rarbg.com.nfo33 bytes torrent search

Sample info:
Duration: 00:10:10.27, start: 0.000000, bitrate: 384 kb/s
Stream #0.0(eng): Video: h264 (High), yuv420p, 1280x720, PAR 1:1 DAR 16:9, 23.98 fps, 23.98 tbr, 1k tbn, 47.95 tbc
Stream #0.1(eng): Audio: ac3, 48000 Hz, 5.1, s16, 384 kb/s
title	: 
screenshots
Island Fever 4 Teagan torrent screenshot 5D2F1A6FB9E8C7E3B5067E3725C1DAFDAD608791 Island Fever 4 Teagan  torrent screenshot 5d2f1a6fb9e8c7e3b5067e3725c1dafdad608791 torrent Island Fever 4 Teagan
Island Fever 4 - Teagan Presley images are auto generated please report any inapropriate images
 

related search cloud

 island  teagan  presley  fever  rarbg  torrent  downloaded