Torrent Search | Torrent Meta Search | Widgets

Polskie Wesele (2002) Klaudia Figura Mayara Claire Brown Midori Kasia Laska Asia Blondi Paula de Vriez Kasia Kruppa

       
625.42 Mb
found 3 years ago
▲ seeders: 5 ▼ leechers:2
your vote:
real:
fake:
Direct Download
THANK YOU
download torrent
  Direct Downloadsponsored

Polskie Wesele (2002) Klaudia Figura Mayara Claire Brown Midori Kasia Laska Asia Blondi Paula de Vriez Kasia Kruppa torrent

Information about the torrent Polskie Wesele (2002) Klaudia Figura Mayara Claire Brown Midori Kasia Laska Asia Blondi Paula de Vriez Kasia Kruppa. Seeders, leechers and torrent status is updated several times per day.

If you want to download the video torrent Polskie Wesele (2002) Klaudia Figura Mayara Claire Brown Midori Kasia Laska Asia Blondi Paula de Vriez Kasia Kruppa you will need a torrent client.

Torrent Metasearch.

Torrent verified by torlock.com.

tracker
seeders
leechers
↓ torrent client compatible list

↑ hide torrent client compatible list

Help torrentproject.com to stay alive .
Add links of torrentproject.com in your favorite forum, blog, youtube, facebook, twitter etc.
reviews
140
torrent contents

Polskie Wesele (2002) (Klaudia Figura,Mayara,Claire Brown,Midori,Kasia Laska,Asia Blondi,Paula de Vriez,Kasia Kruppa).avi torrent

Polskie Wesele (2002) (Klaudia Figura,Mayara,Claire Brown,Midori,Kasia Laska,Asia Blondi,Paula de Vriez,Kasia Kruppa).avi625.42 Mb torrent search

Sample info:
Duration: 01:12:50.72, start: 0.000000, bitrate: 1200 kb/s
Stream #0.0: Video: mpeg4, yuv420p, 352x288 [PAR 47:44 DAR 47:36], PAR 49152:46013 DAR 16384:12549, 25 tbr, 25 tbn, 25 tbc
Stream #0.1: Audio: mp3, 44100 Hz, 2 channels, s16, 128 kb/s
screenshots
Polskie Wesele 2002 Klaudia torrent screenshot 5E35A121703D3446E116FD2CA38F6C09CF5A8B52 Polskie Wesele 2002 Klaudia  torrent screenshot 5e35a121703d3446e116fd2ca38f6c09cf5a8b52 torrent Polskie Wesele 2002 Klaudia
Polskie Wesele (2002) (Klaudia Figura,Mayara,Claire Brown,Midori,Kasia Laska,Asia Blondi,Paula de Vriez,Kasia Kruppa).avi images are auto generated please report any inapropriate images
you may be interested in these torrents seeders leechers size found
Sex Torrenty pl Polskie wesele PL 14 0 712.09 Mb 2 years ago

uwagatxt. kliknij.url erotyka.jpg Polskie Wesele (+18!).avi


Polskie Wesele 1 3 311.52 Mb 4 years ago

Polskie Wesele.jpg Polskie Wesele.rmvb


Polskie Wesele 0 1 735.87 Mb 2 years ago

Polskie Wesele.avi


 

related search cloud

 kasia  asia  laska  blondi  paula  kruppa  vriez  midori  klaudia  wesele