Torrent Search | Torrent Meta Search | Widgets

Max Hardcore Barbi Bucxxx Destroyed

       
165.95 Mb
found 4 years ago
▲ seeders: 3 ▼ leechers:1
your vote:
real:
fake:
Direct Download
THANK YOU
download torrent
  Direct Downloadsponsored

Max Hardcore Barbi Bucxxx Destroyed torrent

Information about the torrent Max Hardcore Barbi Bucxxx Destroyed. Seeders, leechers and torrent status is updated several times per day.

If you want to download the adult torrent Max Hardcore Barbi Bucxxx Destroyed you will need a torrent client.

Torrent Metasearch.

Torrent verified by kat.ph.

tracker
seeders
leechers
↓ torrent client compatible list

↑ hide torrent client compatible list

Help torrentproject.com to stay alive .
Add links of torrentproject.com in your favorite forum, blog, youtube, facebook, twitter etc.
reviews
140
torrent contents

Max Hardcore - Barbi Bucxxx Destroyed torrent

Max Hardcore - Barbi Bucxxx Destroyed
Facial Abuse Discount and Info.txt276 bytes torrent search
Max Hardcore - Barbi Bucxxx Is A Stupid Slut.wmv123.45 Mb torrent search
Max Hardcore - Barbi Bucxxx Is A Stupid Slut.wmv.jpg218.59 Kb torrent search
www.ghettogaggers.com-ms-juicy.wmv41.52 Mb torrent search
www.ghettogaggers.com-ms-juicy.wmv.jpg200.21 Kb torrent search

Sample info:
Duration: 00:34:14.14, start: 7.000000, bitrate: 504 kb/s
Stream #0.0: Audio: wmav2, 32000 Hz, 2 channels, s16, 32 kb/s
Stream #0.1: Video: wmv3, yuv420p, 480x320, 468 kb/s, 29.97 tbr, 1k tbn, 1k tbc
screenshots
Max Hardcore Barbi Bucxxx torrent screenshot 5ED68B3EE4D259DAC93C9164D2FB71C3959D843C Max Hardcore Barbi Bucxxx  torrent screenshot 5ed68b3ee4d259dac93c9164d2fb71c3959d843c torrent Max Hardcore Barbi Bucxxx
Max Hardcore - Barbi Bucxxx Destroyed images are auto generated please report any inapropriate images
 

related search cloud

 bucxxx  barbi  hardcore  slut  juicy  stupid  ghettogaggers  abuse  destroyed  facial