Torrent Search | Torrent Meta Search | Widgets

8TeenBoy

1.38 Gb
found 3 years ago
▲ seeders: 2 ▼ leechers:2
your vote:
real:
fake:
Direct Download
THANK YOU
download torrent
  Direct Downloadsponsored

8TeenBoy torrent

Information about the torrent 8TeenBoy. Seeders, leechers and torrent status is updated everyday.

If you want to download the video torrent 8TeenBoy you will need a torrent client.

Torrent Metasearch.

tracker
seeders
leechers
↓ torrent client compatible list

↑ hide torrent client compatible list

Help torrentproject.com to stay alive .
Add links of torrentproject.com in your favorite forum, blog, youtube, facebook, twitter etc.
reviews
140
torrent contents

8TeenBoy torrent

8TeenBoy
L.A. Cumfidential.wmv1.38 Gb torrent search

Sample info:
Duration: 01:33:51.31, start: 0.000000, bitrate: 2106 kb/s
Stream #0.0(eng): Audio: wmav2, 48000 Hz, 2 channels, s16, 96 kb/s
Stream #0.1(eng): Video: wmv3 (Main), yuv420p, 720x480, 2000 kb/s, PAR 8:9 DAR 4:3, 29.97 tbr, 1k tbn, 1k tbc
screenshots
8TeenBoy torrent screenshot 5F18B35BCFC6A99C622912A7C328191AC120B3C0 8TeenBoy torrent screenshot 5f18b35bcfc6a99c622912a7c328191ac120b3c0 torrent 8TeenBoy
8TeenBoy images are auto generated please report any inapropriate images
 

related search cloud

 cumfidential  teenboy

Torrent Anonymous Download