Torrent Search | Torrent Meta Search | Widgets

Futurama Temporada 3 Audio Latino DVDRip por HSBC

3.76 Gb
found 4 years ago
▲ seeders: 6 ▼ leechers:8
your vote:
real:
fake:
Direct Download
THANK YOU
download torrent
  Direct Downloadsponsored

Futurama Temporada 3 Audio Latino DVDRip por HSBC torrent

Information about the torrent Futurama Temporada 3 Audio Latino DVDRip por HSBC. Seeders, leechers and torrent status is updated everyday.

If you want to download the dvdrip torrent Futurama Temporada 3 Audio Latino DVDRip por HSBC you will need a torrent client.

Torrent Metasearch.

tracker
seeders
leechers
↓ torrent client compatible list

↑ hide torrent client compatible list

Help torrentproject.com to stay alive .
Add links of torrentproject.com in your favorite forum, blog, youtube, facebook, twitter etc.
reviews
140
torrent contents

Futurama Temporada 3 Audio Latino DVDRip - por HSBC torrent

Futurama Temporada 3 Audio Latino DVDRip - por HSBC
Futurama - 03 01 - Amazonas con ganas - AUDIO LATINO,DVD Rip.avi175.05 Mb torrent search
Futurama - 03 02 - Parasitos perdidos-AUDIO LATINO - DVD Rip.avi175.05 Mb torrent search
Futurama - 03 03 - Historia de dos Santa Claus-AUDIO LATINO- [DVDRip][XviD].avi175.05 Mb torrent search
Futurama - 03 04 - La suerte del Frylandes,AUDIO LATINO [DVDRip][XviD].avi175 Mb torrent search
Futurama - 03 05 - El pajaro robot de alcatraz AUDIO LATINO [DVDRip][XviD].avi175.06 Mb torrent search
Futurama - 03 06 - Amor sin dobleces, AUDIO LATINO [DVDRip][XviD].avi175.05 Mb torrent search
Futurama - 03 07 - El dia en que la tierra resistia estupida, AUDIO LATINO[DVDRip][XviD].avi175.05 Mb torrent search
Futurama - 03 08 - Erase una vez, una langosta en Hollywood, AUDIO LATINO[DVDRip][XviD].avi175.05 Mb torrent search
Futurama - 03 09 - Las normas de la cibercasa, AUDIO LATINO, DVDRip.avi175.05 Mb torrent search
Futurama - 03 10 - Donde vaga el buggalo, AUDIO LATINO, DVDRip.avi175.05 Mb torrent search
Futurama - 03 11 - Mal del ordenador central DVDRip, AUDIO LATINO.avi175.05 Mb torrent search
Futurama - 03 12 - La ruta de todo mal DVDRip,AUDIO LATINO.avi175.06 Mb torrent search
Futurama - 03 13 - Doblando en el viento [DVDRip][XviD] ,AUDIO LATINO.avi175.05 Mb torrent search
Futurama - 03 14 - Tiempo a trompicones [DVDRip][XviD],AUDIO LATINO.avi175.05 Mb torrent search
Futurama - 03 15 - Yo sali con una robot.avi175.02 Mb torrent search
Futurama - 03 16 - Una Leela sin igual.avi175.02 Mb torrent search
Futurama - 03 17 - Un faraon para recordar.avi175.05 Mb torrent search

Sample info:
Duration: 00:22:29.35, start: 0.000000, bitrate: 1088 kb/s
Stream #0.0: Video: mpeg4, yuv420p, 592x448 [PAR 1:1 DAR 37:28], 23.98 tb(r)
Stream #0.1: Audio: mp3, 48000 Hz, stereo, 128 kb/s
screenshots
Futurama Temporada 3 Audio torrent screenshot 5F22FA00F4756F8B8CE7CE6A1816314E990376E7 Futurama Temporada 3 Audio  torrent screenshot 5f22fa00f4756f8b8ce7ce6a1816314e990376e7 torrent Futurama Temporada 3 Audio
Futurama Temporada 3 Audio Latino DVDRip - por HSBC images are auto generated please report any inapropriate images
 

related search cloud

 futurama  audio  latino  dvdrip  xvid  robot  ruta  todo  central  vaga