Torrent Search | Torrent Meta Search | Widgets

18yo first time painful anal

216.38 Mb
found 4 years ago
▲ seeders: 1 ▼ leechers:1
your vote:
real:
fake:
Direct Download
THANK YOU
download torrent
  Direct Downloadsponsored

18yo first time painful anal torrent

Information about the torrent 18yo first time painful anal. Seeders, leechers and torrent status is updated everyday.

If you want to download the anal torrent 18yo first time painful anal you will need a torrent client.

Torrent Metasearch.

tracker
seeders
leechers
↓ torrent client compatible list

↑ hide torrent client compatible list

Help torrentproject.com to stay alive .
Add links of torrentproject.com in your favorite forum, blog, youtube, facebook, twitter etc.
reviews
140
torrent contents

18yo first time painful anal torrent

18yo_first_time_painful_anal
18yo_first_time_painful_anal.mpg216 Mb torrent search
Marc2.jpg385.75 Kb torrent search

Sample info:
Duration: 00:38:04.48, start: 0.280833, bitrate: 793 kb/s
Stream #0.0[0x1e0]: Video: mpeg1video, yuv420p, 320x240 [PAR 1:1 DAR 4:3], 104857 kb/s, 25 fps, 25 tbr, 90k tbn, 25 tbc
Stream #0.1[0x1c0]: Audio: mp2, 44100 Hz, 2 channels, s16, 64 kb/s
screenshots
18yo first time painful torrent screenshot 606DA1A8093BE7F5FC06C32A63F24A21D512D5EE 18yo first time painful  torrent screenshot 606da1a8093be7f5fc06c32a63f24a21d512d5ee torrent 18yo first time painful
18yo first time painful anal images are auto generated please report any inapropriate images
you may be interested in these torrents seeders leechers size found
18yo first porn exp 1 1 100.1 Mb 3 years ago

18yo-first-porn-exp.avi


DP 0 1 233.79 Mb 10 months ago

18yo_First_Timer_Anal_Double_Penetration_DP.mpg


 

related search cloud

 anal  first  painful  time  marc