Torrent Search | Torrent Meta Search | Widgets

Defloration Liza Blueberry

       
507.48 Mb
found 2 years ago
▲ seeders: 3 ▼ leechers:2
your vote:
real:
fake:
Direct Download
THANK YOU
download torrent
  Direct Downloadsponsored

Defloration Liza Blueberry torrent

Information about the torrent Defloration Liza Blueberry. Seeders, leechers and torrent status is updated everyday.

If you want to download the adult torrent Defloration Liza Blueberry you will need a torrent client.

Torrent Metasearch.

Torrent verified by kat.ph.

tracker
seeders
leechers
↓ torrent client compatible list

↑ hide torrent client compatible list

Help torrentproject.com to stay alive .
Add links of torrentproject.com in your favorite forum, blog, youtube, facebook, twitter etc.
reviews
140
torrent contents

Defloration-Liza Blueberry torrent

Defloration-Liza Blueberry
Liza_Blueberry_full.avi507.48 Mb torrent search
Torrent downloaded from rarbg.com.nfo33 bytes torrent search

Sample info:
Duration: 00:40:22.88, start: 0.000000, bitrate: 1757 kb/s
Stream #0.0: Video: mpeg4, yuv420p, 712x400 [PAR 1:1 DAR 89:50], 25 fps, 25 tbr, 25 tbn, 30k tbc
Stream #0.1: Audio: mp3, 48000 Hz, 2 channels, s16, 128 kb/s
screenshots
Defloration Liza Blueberry torrent screenshot 61260E42C6D1964CE581A637E15A73BC898F04CA Defloration Liza Blueberry torrent screenshot 61260e42c6d1964ce581a637e15a73bc898f04ca torrent Defloration Liza Blueberry
Defloration-Liza Blueberry images are auto generated please report any inapropriate images
 

related search cloud

 blueberry  liza  rarbg  downloaded  full  defloration  torrent

Torrent Anonymous Download